Забыли пароль?

Ледниковый период: Антология / Ice Age: Antology (Крис Уэдж, Карлос Салдана / Карлос Салдана / Карлос Салдана, Майк Трумейер / Стив Мартино, Майк Тёрм) [2002, 2006, 2009, 2012, мультфильм, комедия, приключения, семейный, HDRip-AVC] от R.G. nICE Films

Раздают: 9  [  372 KB/s  ]   Качают: 4  [  332 KB/s  ]
Размер:5.81 GB   Добавлен: 2012-10-29 13:14 (1 г. 10 мес. назад)  Взят:795 раз
 
Автор Сообщение Хештэг #Ледниковый период: Антология

Demonessa

Ледниковый период: Антология , Скачать торрент 

Ледниковый период: Антология / Ice Age: Antology
Ледниковый период / Ice Age
«Отмороженные герои»


Год выпуска: 2002
Страна: США
Жанр: мультфильм, комедия, приключения, семейный
Длительность: 01:21:05
Перевод: Профессиональный (Дубляж)
Режиссер: Крис Уэдж, Карлос Салдана
В ролях: Рэй Романо, Джон Легуизамо, Дэнис Лири, Горан Вишнич, Джек Блэк, Седрик «Развлекатель», Стивен Рут, Дидрих Бадер, Алан Тьюдик, Лорри Бэгли
Описание: Веселые и опасные приключения героев. 20 тыс. лет назад. Чтобы избежать приближающегося из-за наступления ледникового периода холода, животные мигрируют на юг. Однако некоторые из них все-таки решают остаться — одинокий, угрюмый мамонт Манфред, а также бесшабашный ленивец Сид.
Случайно эта парочка наталкивается на человеческого детеныша. Они решаются вернуть его людям и отправляются в путешествие. По пути они встречают саблезубого хитрого тигра. И теперь этой веселой компании предстоят забавные приключения!

|

Качество: HDRip-AVC (Rip by Demonessa)
Исходник: BDRip 1080p
Формат: MKV
Видео кодек: H.264
Аудио кодек: AC3
Видео: H.264, 1024*560, 23,976 кадр/сек, 2185 Кбит/сек, 0.159 Бит/(Пиксели*Кадры)
Аудио: AC3, 384 Кбит/сек, 6 каналов, 48,0 КГц

Код:

Общее
Уникальный идентификатор         : 188246645680816737512510007301274998183 (0x8D9EFC3510BEC017811228AD9BFA15A7)
Полное имя                       : E:VideoR.G. nICE Films (Rips by Demonessa)МультфильмыЛедниковый период (Трилогия)Ледниковый период Rip by Demonessa.mkv
Формат                           : Matroska
Размер файла                     : 1,46 Гбайт
Длительность                : 1 ч. 21 м.
Общий поток                      : 2569 Кбит/сек
Дата кодирования                 : UTC 2011-10-12 01:53:22
Программа кодирования            : mkvmerge v4.9.1 ('Ich will') built on Jul 11 2011 23:53:15
Библиотека кодирования           : libebml v1.2.1 + libmatroska v1.1.1
Видео
Идентификатор                    : 1
Формат                           : AVC
Формат/Информация                : Advanced Video Кодек
Профиль формата                  : High@L4.1
Параметр CABAC формата           : Да
Параметр ReFrames формата        : 14 кадры
Идентификатор кодека             : V_MPEG4/ISO/AVC
Длительность                : 1 ч. 21 м.
Битрейт                          : 2185 Кбит/сек
Ширина                           : 1024 пикс.
Высота                           : 560 пикс.
Соотношение сторон               : 16:9
Частота кадров                   : 23,976 кадр/сек
Цветовое пространство            : YUV
Подвыборка цветности             : 4:2:0
Битовая глубина                  : 8 бит
Тип развёртки                    : Прогрессивная
Бит/(Пиксели*Кадры)              : 0.159
Размер потока                    : 1,21 Гбайт (83%)
Заголовок                        : Rip by Demonessa
Библиотека кодирования           : x264 core 116 r2074 2641b9e
Настройки программы              : cabac=1 / ref=14 / deblock=1:-2:-1 / analyse=0x3:0x113 / me=umh / subme=9 / psy=1 / psy_rd=1.00:0.00 / mixed_ref=1 / me_range=32 / chroma_me=1 / trellis=2 / 8x8dct=1 / cqm=0 / deadzone=21,11 / fast_pskip=1 / chroma_qp_offset=-2 / threads=4 / sliced_threads=0 / nr=0 / decimate=1 / interlaced=0 / bluray_compat=0 / constrained_intra=0 / bframes=8 / b_pyramid=2 / b_adapt=1 / b_bias=0 / direct=1 / weightb=1 / open_gop=0 / weightp=2 / keyint=250 / keyint_min=23 / scenecut=40 / intra_refresh=0 / rc_lookahead=40 / rc=2pass / mbtree=1 / bitrate=2185 / ratetol=1.0 / qcomp=0.70 / qpmin=10 / qpmax=51 / qpstep=4 / cplxblur=20.0 / qblur=0.5 / ip_ratio=1.40 / aq=1:1.00
Язык                             : English
Аудио
Идентификатор                    : 2
Формат                           : AC-3
Формат/Информация                : Audio Coding 3
Расширение режима                : CM (complete main)
Идентификатор кодека             : A_AC3
Длительность                : 1 ч. 21 м.
Вид битрейта                     : Постоянный
Битрейт                          : 384 Кбит/сек
Канал(ы)                         : 6 канала(ов)
Расположение каналов             : Front: L C R, Side: L R, LFE
Частота                          : 48,0 КГц
Битовая глубина                  : 16 бит
Метод сжатия                     : С потерями
Размер потока                    : 223 Мбайт (15%)
Заголовок                        : Дубляж
Язык                             : Russian

Ледниковый период 2: Глобальное потепление / Ice Age: The Meltdown
«Зима закончилась!»


Год выпуска: 2006
Страна: США
Жанр: мультфильм, комедия, приключения, семейный
Длительность: 01:30:36
Перевод: Профессиональный (Дубляж)
Режиссер: Карлос Салдана
В ролях: Рэй Романо, Джон Легуизамо, Дэнис Лири, Шонн Уильям Скотт, Джош Пек, Куин Латифа, Уилл Арнетт, Джей Лено, Крис Уэдж, Питер Экерман
Описание: Саблезубый тигр Диего, мамонт Манфред, грызун Скрэт и ленивец Сид дожили до глобального потепления. С одной стороны, это круто — ледяная пустыня превратилась в настоящий аквапарк, где можно принимать теплые ванны и резвиться под сенью струй. С другой — не очень: стремительный паводок идет прямиком к их родной долине.
Теперь ответственным животным придется спасать соседей от потопа, что довольно проблематично — строить ковчег совершенно не из чего, кроме как из талого снега. Но не беспокойтесь — эвакуация разнообразной живности в сухое место пройдет не менее суетливо, смешно и успешно, чем и прошлая операция по возвращению человеческого детеныша в лоно семьи.

|

Качество: HDRip-AVC (Rip by Demonessa)
Исходник: BDRip 1080p
Формат: MKV
Видео кодек: H.264
Аудио кодек: AC3
Видео: H.264, 1024*560, 23,976 кадр/сек, 1914 Кбит/сек, 0.139 Бит/(Пиксели*Кадры)
Аудио: AC3, 384 Кбит/сек, 6 каналов, 48,0 КГц

Код:

Общее
Уникальный идентификатор         : 192163655884576147984279575014818015881 (0x90915FB881C8EB548CB731DC048D6A89)
Полное имя                       : E:VideoR.G. nICE Films (Rips by Demonessa)МультфильмыЛедниковый период (Трилогия)Ледниковый период 2 - Глобальное потепление Rip by Demonessa.mkv
Формат                           : Matroska
Размер файла                     : 1,45 Гбайт
Длительность                : 1 ч. 30 м.
Общий поток                      : 2293 Кбит/сек
Дата кодирования                 : UTC 2011-10-13 20:49:33
Программа кодирования            : mkvmerge v4.9.1 ('Ich will') built on Jul 11 2011 23:53:15
Библиотека кодирования           : libebml v1.2.1 + libmatroska v1.1.1
Видео
Идентификатор                    : 1
Формат                           : AVC
Формат/Информация                : Advanced Video Кодек
Профиль формата                  : High@L4.1
Параметр CABAC формата           : Да
Параметр ReFrames формата        : 14 кадры
Идентификатор кодека             : V_MPEG4/ISO/AVC
Длительность                : 1 ч. 30 м.
Битрейт                          : 1914 Кбит/сек
Ширина                           : 1024 пикс.
Высота                           : 560 пикс.
Соотношение сторон               : 16:9
Частота кадров                   : 23,976 кадр/сек
Цветовое пространство            : YUV
Подвыборка цветности             : 4:2:0
Битовая глубина                  : 8 бит
Тип развёртки                    : Прогрессивная
Бит/(Пиксели*Кадры)              : 0.139
Размер потока                    : 1,18 Гбайт (81%)
Заголовок                        : Rip by Demonessa
Библиотека кодирования           : x264 core 116 r2074 2641b9e
Настройки программы              : cabac=1 / ref=14 / deblock=1:-2:-1 / analyse=0x3:0x113 / me=umh / subme=9 / psy=1 / psy_rd=1.00:0.00 / mixed_ref=1 / me_range=32 / chroma_me=1 / trellis=2 / 8x8dct=1 / cqm=0 / deadzone=21,11 / fast_pskip=1 / chroma_qp_offset=-2 / threads=4 / sliced_threads=0 / nr=0 / decimate=1 / interlaced=0 / bluray_compat=0 / constrained_intra=0 / bframes=8 / b_pyramid=2 / b_adapt=1 / b_bias=0 / direct=1 / weightb=1 / open_gop=0 / weightp=2 / keyint=250 / keyint_min=23 / scenecut=40 / intra_refresh=0 / rc_lookahead=40 / rc=2pass / mbtree=1 / bitrate=1914 / ratetol=1.0 / qcomp=0.70 / qpmin=10 / qpmax=51 / qpstep=4 / cplxblur=20.0 / qblur=0.5 / ip_ratio=1.40 / aq=1:1.00
Язык                             : English
Аудио
Идентификатор                    : 2
Формат                           : AC-3
Формат/Информация                : Audio Coding 3
Расширение режима                : CM (complete main)
Идентификатор кодека             : A_AC3
Длительность                : 1 ч. 30 м.
Вид битрейта                     : Постоянный
Битрейт                          : 384 Кбит/сек
Канал(ы)                         : 6 канала(ов)
Расположение каналов             : Front: L C R, Side: L R, LFE
Частота                          : 48,0 КГц
Битовая глубина                  : 16 бит
Метод сжатия                     : С потерями
Размер потока                    : 249 Мбайт (17%)
Заголовок                        : Дубляж
Язык                             : Russian

Ледниковый период 3: Эра динозавров / Ice Age: Dawn of the Dinosaurs
«The sub-zero heroes are back, on an incredible adventure... for the ages.»


Год выпуска: 2009
Страна: США
Жанр: мультфильм, комедия, приключения, семейный
Длительность: 01:34:03
Перевод: Профессиональный (Дубляж)
Режиссер: Карлос Салдана, Майк Трумейер
В ролях: Рэй Романо, Джон Легуизамо, Саймон Пегг, Куин Латифа, Шонн Уильям Скотт, Джош Пек, Дэнис Лири, Крис Уэдж, Юнис Чо, Карен Дишер
Описание: К событиям «Ледникового периода 3» жизнь главных героев мультфильма потерпела некоторые изменения. Мамонты Манфред и Элли ожидают появление на свет своего детёныша; саблезубый тигр Диего впал в раздумье о том, не стал ли он слишком «мягкотелым» в компании своих друзей; ленивец Сид, бредя желанием создать собственное племя, решился украсть несколько яиц динозавра. Отправившись спасать Сида, друзья попадают в таинственный растительный мир, скрытый под толщами льда, где они сталкиваются с динозаврами и агрессивной окружающей средой, а также знакомятся с охотником на динозавров — лаской по имени Бак.
Крысобелка Скрэт (который вновь случайным образом стал виной глобальной проблемы, открыв путь в мир динозавров) по-прежнему гоняется за своим орехом, но на этот раз у него появился конкурент — крысобелка Скрэтти, однако, одновременно с одержимой борьбой за орех, эти двое влюбляются друг в друга.

|

Качество: HDRip-AVC (Rip by Demonessa)
Исходник: BDRip 1080p
Формат: MKV
Видео кодек: H.264
Аудио кодек: AC3
Видео: H.264, 1024*560, 23,976 кадр/сек, 1830 Кбит/сек, 0.133 Бит/(Пиксели*Кадры)
Аудио: AC3, 384 Кбит/сек, 6 каналов, 48,0 КГц

Код:

Общее
Уникальный идентификатор         : 208880174038444170116120385642602899061 (0x9D24DBB2CB8746F2A09E3AAD82F72675)
Полное имя                       : E:VideoR.G. nICE Films (Rips by Demonessa)МультфильмыЛедниковый период (Трилогия)Ледниковый период 3 - Эра динозавров Rip by Demonessa.mkv
Формат                           : Matroska
Размер файла                     : 1,45 Гбайт
Длительность                : 1 ч. 34 м.
Общий поток                      : 2214 Кбит/сек
Дата кодирования                 : UTC 2011-10-17 19:22:46
Программа кодирования            : mkvmerge v4.9.1 ('Ich will') built on Jul 11 2011 23:53:15
Библиотека кодирования           : libebml v1.2.1 + libmatroska v1.1.1
Видео
Идентификатор                    : 1
Формат                           : AVC
Формат/Информация                : Advanced Video Кодек
Профиль формата                  : High@L4.1
Параметр CABAC формата           : Да
Параметр ReFrames формата        : 14 кадры
Идентификатор кодека             : V_MPEG4/ISO/AVC
Длительность                : 1 ч. 34 м.
Битрейт                          : 1830 Кбит/сек
Ширина                           : 1024 пикс.
Высота                           : 560 пикс.
Соотношение сторон               : 16:9
Частота кадров                   : 23,976 кадр/сек
Цветовое пространство            : YUV
Подвыборка цветности             : 4:2:0
Битовая глубина                  : 8 бит
Тип развёртки                    : Прогрессивная
Бит/(Пиксели*Кадры)              : 0.133
Размер потока                    : 1,17 Гбайт (81%)
Заголовок                        : Rip by Demonessa
Библиотека кодирования           : x264 core 116 r2074 2641b9e
Настройки программы              : cabac=1 / ref=14 / deblock=1:-2:-1 / analyse=0x3:0x113 / me=umh / subme=9 / psy=1 / psy_rd=1.00:0.00 / mixed_ref=1 / me_range=32 / chroma_me=1 / trellis=2 / 8x8dct=1 / cqm=0 / deadzone=21,11 / fast_pskip=1 / chroma_qp_offset=-2 / threads=4 / sliced_threads=0 / nr=0 / decimate=1 / interlaced=0 / bluray_compat=0 / constrained_intra=0 / bframes=8 / b_pyramid=2 / b_adapt=1 / b_bias=0 / direct=1 / weightb=1 / open_gop=0 / weightp=2 / keyint=250 / keyint_min=23 / scenecut=40 / intra_refresh=0 / rc_lookahead=40 / rc=2pass / mbtree=1 / bitrate=1830 / ratetol=1.0 / qcomp=0.70 / qpmin=10 / qpmax=51 / qpstep=4 / cplxblur=20.0 / qblur=0.5 / ip_ratio=1.40 / aq=1:1.00
Язык                             : English
Аудио
Идентификатор                    : 2
Формат                           : AC-3
Формат/Информация                : Audio Coding 3
Расширение режима                : CM (complete main)
Идентификатор кодека             : A_AC3
Длительность                : 1 ч. 34 м.
Вид битрейта                     : Постоянный
Битрейт                          : 384 Кбит/сек
Канал(ы)                         : 6 канала(ов)
Расположение каналов             : Front: L C R, Side: L R, LFE
Частота                          : 48,0 КГц
Битовая глубина                  : 16 бит
Метод сжатия                     : С потерями
Размер потока                    : 258 Мбайт (17%)
Заголовок                        : Дубляж
Язык                             : Russian

Ледниковый период 4: Континентальный дрейф / Ice Age: Continental Drift

Год выпуска: 2012
Страна: США
Жанр: мультфильм, комедия, приключения, семейный
Длительность: 01:27:45
Перевод: Профессиональный (Дубляж)
Режиссер: Стив Мартино, Майк Тёрм
В ролях: Рэй Романо, Джон Легуизамо, Куин Латифа, Дэнис Лири, Джош Пек, Питер Динклэйдж, Кеке Палмер, Дженнифер Лопез, Ник Фрост, Азиз Ансари
Описание: После приключений под землей прошло семь лет. Случился дрейф континентов. Главные герои мультфильма, отделённые от стада, вынуждены использовать айсберг в качестве плота. Они пересекают океан и попадают в неизвестные им ранее земли с экзотическими животными и пиратами, враждебно настроенными к ним. Скрэту удаётся получить свой жёлудь, но он перемещается в новые для него земли.

|

Качество: HDRip-AVC (Rip by Demonessa)
Исходник: BDRip 1080p
Формат: MKV
Видео кодек: H.264
Аудио кодек: AC3
Видео: H.264, 1024*432, 23,976 кадр/сек, 1986 Кбит/сек, 0.187 Бит/(Пиксели*Кадры)
Аудио: AC3, 384 Кбит/сек, 6 каналов, 48,0 КГц

Код:

Общее
Уникальный идентификатор         : 244376670769297288923071555340021939519 (0xB7D93C1B7CC8E77F876963330A563D3F)
Полное имя                       : E:VideoR.G. nICE Films (Rips by Demonessa)МультфильмыЛедниковый период (Антология)Ледниковый период 4 - Континентальный дрейф.mkv
Формат                           : Matroska
Размер файла                     : 1,45 Гбайт
Длительность                : 1 ч. 27 м.
Общий поток                      : 2368 Кбит/сек
Дата кодирования                 : UTC 2012-10-29 13:52:39
Программа кодирования            : mkvmerge v5.6.0 ('Kenya Kane') built on May 27 2012 16:44:04
Библиотека кодирования           : libebml v1.2.3 + libmatroska v1.3.0
Видео
Идентификатор                    : 1
Формат                           : AVC
Формат/Информация                : Advanced Video Кодек
Профиль формата                  : High@L4.1
Параметр CABAC формата           : Да
Параметр ReFrames формата        : 10 кадры
Параметры GOP формата            : M=8, N=37
Идентификатор кодека             : V_MPEG4/ISO/AVC
Длительность                : 1 ч. 27 м.
Битрейт                          : 1986 Кбит/сек
Ширина                           : 1024 пикс.
Высота                           : 432 пикс.
Соотношение сторон               : 2,35:1
Частота кадров                   : 23,976 кадр/сек
Цветовое пространство            : YUV
Подвыборка цветности             : 4:2:0
Битовая глубина                  : 8 бит
Тип развёртки                    : Прогрессивная
Бит/(Пиксели*Кадры)              : 0.187
Размер потока                    : 1,19 Гбайт (82%)
Заголовок                        : Rip by Demonessa
Библиотека кодирования           : x264 core 125 r2200 999b753
Настройки программы              : cabac=1 / ref=10 / deblock=1:-2:-1 / analyse=0x3:0x113 / me=umh / subme=9 / psy=1 / psy_rd=1.00:0.00 / mixed_ref=1 / me_range=32 / chroma_me=1 / trellis=2 / 8x8dct=1 / cqm=0 / deadzone=21,11 / fast_pskip=1 / chroma_qp_offset=-2 / threads=4 / lookahead_threads=1 / sliced_threads=0 / nr=0 / decimate=1 / interlaced=0 / bluray_compat=0 / constrained_intra=0 / bframes=7 / b_pyramid=2 / b_adapt=1 / b_bias=0 / direct=1 / weightb=1 / open_gop=0 / weightp=2 / keyint=240 / keyint_min=23 / scenecut=40 / intra_refresh=0 / rc_lookahead=40 / rc=2pass / mbtree=1 / bitrate=1986 / ratetol=1.0 / qcomp=0.70 / qpmin=10 / qpmax=51 / qpstep=4 / cplxblur=20.0 / qblur=0.5 / ip_ratio=1.40 / aq=1:1.00
Язык                             : English
Аудио
Идентификатор                    : 2
Формат                           : AC-3
Формат/Информация                : Audio Coding 3
Расширение режима                : CM (complete main)
Идентификатор кодека             : A_AC3
Длительность                : 1 ч. 27 м.
Вид битрейта                     : Постоянный
Битрейт                          : 384 Кбит/сек
Канал(ы)                         : 6 канала(ов)
Расположение каналов             : Front: L C R, Side: L R, LFE
Частота                          : 48,0 КГц
Битовая глубина                  : 16 бит
Метод сжатия                     : С потерями
Размер потока                    : 241 Мбайт (16%)
Заголовок                        : Дубляж
Язык                             : Russian


Просьба «поделиться» в соцсетях

ЗОЛОТАЯ РАЗДАЧА! СКАЧАННОЕ НЕ ЗАСЧИТЫВАЕТСЯ!
Торрент: [добавлен 2012-10-29 13:14 ] Зарегистрирован

Статус: √ проверено
Торрент скачан: 795 раз
Размер: 5.81 GB
Оценка: 9.5 из 10 (Голосов: 31)



Последний раз редактировалось: Demonessa (2012-10-29 13:14), всего редактировалось 3 раз(а)

Belarussachka

Ледниковый период: Антология , Скачать торрент 

СПС! :good2: +1

gggh

Ледниковый период: Антология , Скачать торрент 

дайте скорости пожалуйста

Надюля

Ледниковый период: Антология , Скачать торрент 

спасибо, у меня дети балдеют

Ледниковый период: Антология , Скачать торрент 

Раздача обновлена
Добавлена 4я часть

МаскПэйн

Ледниковый период: Антология , Скачать торрент 

Спасибо большое!!!

BlackHearth

Ледниковый период: Антология , Скачать торрент 

Весч!!! +1 +1 +1

Новые торренты

02-09
02-09
02-09
02-09
02-09
02-09
02-09
02-09
02-09
02-09
02-09
02-09
02-09
02-09
02-09

Игры горячие новинки

26-08
24-08
20-08
20-08
18-08
17-08
16-08
13-08
13-08
13-08
13-08
12-08
11-08
09-08
04-08
Показать сообщения:    


Вы не можете начинать темы
Вы не можете отвечать на сообщения
Вы не можете редактировать свои сообщения
Вы не можете удалять свои сообщения
Вы не можете голосовать в опросах
Вы не можете прикреплять файлы к сообщениям
Вы можете скачивать файлы