Забыли пароль?

Сборник видеоклипов / Music Video vol.1 [2008-2013 г., Trance, WEB-DLRip]

Размер:3.03 GB   Добавлен: 2013-03-14 16:19 (1 г. 4 мес. назад)  Взят:288 раз
 
Автор Сообщение Хештэг #Сборник видеоклипов

kocmoc2012

Сборник видеоклипов , Скачать торрент 

Сборник видеоклипов / Music Video vol.1


Год выпуска: 2008-2013
Страна: All World
Жанр: Trance
Длительность: 02:19:33
1.Alex M.O.R.P.H. feat. Shannon Hurley - Monday Morning Madness (Official Music Video) New 2013!
2.Allure featuring Jeza - You Say It'll Be Okay (Official Music Video)
3.Andain - Much Too Much (Official Music Video)
4.Andain - Promises (Official Music Video)
5.Andain - Turn Up The Sound (Official Music Video)
6.Avis Vox - Introspection Attemps (Moonbeam Mix) (Official Music Video)
7.Betsie Larkin & John O'Callaghan - The Dream (Official Music Video)
8.Betsie Larkin with Super8 & Tab - All We Have Is Now (Official Music Video)
9.Bobina - Angel of the North (Official Music Video)
10.Bobina & Betsie Larkin - You Belong To Me (Official Music Video)
11.BT - A Million Stars (feat. Kirsty Hawkshaw) (Official Music Video)
12.BT feat. JES - Every Other Way (Armin Van Buuren Remix)
13.BT featuring Kirsty Hawkshaw - A Million Stars (Official Music Video)
14.Cosmic Gate & Emma Hewitt - Be Your Sound (Official Music Video)
15.Daniel Kandi feat. Sarah Russell - Change the World (OFFICIAL MUSIC VIDEO)
16.Estiva & Cardinal feat. Arielle Maren - Wait Forever (Official Music Video)
17.Estiva feat. Josie - Better Days (Official Music Video)
18.Gareth Emery feat. Christina Novelli - Concrete Angel (Official Music Video)
19.Gareth Emery feat. Lucy Saunders - Fight The Sunrise (Official Music Video)
20.George Acosta feat. Fisher - True Love (Director's Cut)
21.George Acosta feat. Fisher - True Love (Official Music Video)
22.JES - Awaken (Official Music Video)
23.JES - Closer (Bimbo Jones Radio Edit)
24.JES - It's Too Late (Music Video) (First State Remix)
25.JES & Andy Duguid - Before You Go (Timothy Allan & Loverush Radio Edit)
26.JES & Ronski Speed - Can't Stop (Official Music Video)
27.JES Chanson D'Amour Official Music Video (Official Music Video)
28.Julie Thompson - Shine (Official Music Video)
29.Moonbeam feat Leusin - Daydream (Official Music Video)
30.Moonbeam feat. Avis Vox - Star Way (Official Music Video)
31.Moonbeam ft Avis Vox - We Are In Words (Official Video)
32.Pulser featuring Molly Bancroft - In Deep (Official Music Video)
33.Richard Durand & Pedro Del Mar feat. Roberta Harrison - Paint the Sky (Official Music Video)
34.Richard Durand feat. Hadley - Run To You (Godskitchen Fusion Edit)
35.Richard Durand feat. Hadley - Run To You (Official Music Video)
36.XB & Linnea Schossow - Be My All (Official Music Video)
Качество: WEB-DLRip
Формат: MPEG-4 AVC/H.264
Видео кодек: H.26x
Аудио кодек: AAC
Видео: 1280x720,1920x1080; 23,976 кадра/сек - 25,000 кадров/сек; ~ 4000 Кбит/сек
Аудио#1: AAC, 2.0, ~192 Кбит/сек"Скриншоты"           
           

Общее
Полное имя : E:Music Video(Vocal Trance)(2008-2013)Alex M.O.R.P.H. feat. Shannon Hurley - Monday Morning Madness (Official Music Video).mp4
Формат : MPEG-4
Профиль формата : Base Media / Version 2
Идентификатор кодека : mp42
Размер файла : 56,5 Мбайт
Длительность : 2 м. 50 с.
Режим общего битрейта : Переменный
Общий поток : 2782 Кбит/сек
Дата кодирования : UTC 2013-01-13 13:47:54
Дата пометки : UTC 2013-01-13 13:47:54
gsst : 0
gstd : 170386
gssd : B2EE8CF48HH1358430521430825
gshh : r5---sn-hxb54vo-304e.c.youtube.com
Видео
Идентификатор : 1
Формат : AVC
Формат/Информация : Advanced Video Кодек
Профиль формата : High@L4.0
Параметр CABAC формата : Да
Параметр ReFrames формата : 1 кадр
Идентификатор кодека : avc1
Идентификатор кодека/Информация : Advanced Video Coding
Длительность : 2 м. 50 с.
Битрейт : 2588 Кбит/сек
Максимальный битрейт : 6902 Кбит/сек
Ширина : 1920 пикселей
Высота : 1080 пикселей
Соотношение сторон : 16:9
Режим частоты кадров : Постоянный
Частота кадров : 23,976 кадра/сек
Цветовое пространство : YUV
Субдискретизация насыщенности : 4:2:0
Битовая глубина : 8 бит
Тип развёртки : Прогрессивная
Бит/(Пиксели*Кадры) : 0.052
Размер потока : 52,5 Мбайт (93%)
Дата пометки : UTC 2013-01-13 13:47:54
Аудио
Идентификатор : 2
Формат : AAC
Формат/Информация : Advanced Audio Кодек
Профиль формата : LC
Идентификатор кодека : 40
Длительность : 2 м. 50 с.
Вид битрейта : Переменный
Битрейт : 192 Кбит/сек
Максимальный битрейт : 203 Кбит/сек
Каналы : 2 канала
Расположение каналов : Front: L R
Частота : 44,1 КГц
Метод сжатия : С потерями
Размер потока : 3,90 Мбайт (7%)
Заголовок : IsoMedia File Produced by Google, 5-11-2011
Дата кодирования : UTC 2013-01-13 13:47:54
Дата пометки : UTC 2013-01-13 13:47:54
Общее
Полное имя : E:Music Video(Vocal Trance)(2008-2013)Allure featuring Jeza - You Say It'll Be Okay (Official Music Video).mp4
Формат : MPEG-4
Профиль формата : Base Media / Version 2
Идентификатор кодека : mp42
Размер файла : 173 Мбайт
Длительность : 4 м. 10 с.
Режим общего битрейта : Переменный
Общий поток : 5812 Кбит/сек
Дата кодирования : UTC 2012-07-26 08:43:17
Дата пометки : UTC 2012-07-26 08:43:17
gsst : 0
gstd : 250216
gssd : B2EE8CF4BMM1358092989458622
gshh : r8---sn-hxb54vo-304e.c.youtube.com
Видео
Идентификатор : 1
Формат : AVC
Формат/Информация : Advanced Video Кодек
Профиль формата : High@L4.0
Параметр CABAC формата : Да
Параметр ReFrames формата : 1 кадр
Параметр GOP формата : M=1, N=48
Идентификатор кодека : avc1
Идентификатор кодека/Информация : Advanced Video Coding
Длительность : 4 м. 10 с.
Битрейт : 5617 Кбит/сек
Максимальный битрейт : 16,7 Мбит/сек
Ширина : 1920 пикселей
Высота : 1080 пикселей
Соотношение сторон : 16:9
Режим частоты кадров : Постоянный
Частота кадров : 24,000 кадра/сек
Цветовое пространство : YUV
Субдискретизация насыщенности : 4:2:0
Битовая глубина : 8 бит
Тип развёртки : Прогрессивная
Бит/(Пиксели*Кадры) : 0.113
Размер потока : 167 Мбайт (97%)
Дата пометки : UTC 2012-07-26 08:43:18
Аудио
Идентификатор : 2
Формат : AAC
Формат/Информация : Advanced Audio Кодек
Профиль формата : LC
Идентификатор кодека : 40
Длительность : 4 м. 10 с.
Вид битрейта : Переменный
Битрейт : 192 Кбит/сек
Максимальный битрейт : 203 Кбит/сек
Каналы : 2 канала
Расположение каналов : Front: L R
Частота : 44,1 КГц
Метод сжатия : С потерями
Размер потока : 5,72 Мбайт (3%)
Заголовок : IsoMedia File Produced by Google, 5-11-2011
Дата кодирования : UTC 2012-07-26 08:43:18
Дата пометки : UTC 2012-07-26 08:43:18
Общее
Полное имя : E:Music Video(Vocal Trance)(2008-2013)Andain - Much Too Much (Official Music Video).mp4
Формат : MPEG-4
Профиль формата : Base Media / Version 2
Идентификатор кодека : mp42
Размер файла : 118 Мбайт
Длительность : 4 м. 18 с.
Режим общего битрейта : Переменный
Общий поток : 3816 Кбит/сек
Дата кодирования : UTC 2012-02-01 11:14:27
Дата пометки : UTC 2012-02-01 11:14:27
gsst : 0
gstd : 258855
gssd : B2E3D9BC9HH1358097195479230
gshh : r6---sn-gvnuxaxjvh-n8vz.c.youtube.com
Видео
Идентификатор : 1
Формат : AVC
Формат/Информация : Advanced Video Кодек
Профиль формата : High@L4.0
Параметр CABAC формата : Да
Параметр ReFrames формата : 1 кадр
Идентификатор кодека : avc1
Идентификатор кодека/Информация : Advanced Video Coding
Длительность : 4 м. 18 с.
Битрейт : 3661 Кбит/сек
Максимальный битрейт : 8054 Кбит/сек
Ширина : 1920 пикселей
Высота : 1080 пикселей
Соотношение сторон : 16:9
Режим частоты кадров : Постоянный
Частота кадров : 25,000 кадров/сек
Цветовое пространство : YUV
Субдискретизация насыщенности : 4:2:0
Битовая глубина : 8 бит
Тип развёртки : Прогрессивная
Бит/(Пиксели*Кадры) : 0.071
Размер потока : 113 Мбайт (96%)
Дата пометки : UTC 2012-02-01 11:14:27
Аудио
Идентификатор : 2
Формат : AAC
Формат/Информация : Advanced Audio Кодек
Профиль формата : LC
Идентификатор кодека : 40
Длительность : 4 м. 18 с.
Вид битрейта : Переменный
Битрейт : 152 Кбит/сек
Максимальный битрейт : 187 Кбит/сек
Каналы : 2 канала
Расположение каналов : Front: L R
Частота : 44,1 КГц
Метод сжатия : С потерями
Размер потока : 4,69 Мбайт (4%)
Заголовок : IsoMedia File Produced by Google, 5-11-2011
Дата кодирования : UTC 2012-02-01 11:14:27
Дата пометки : UTC 2012-02-01 11:14:27
Общее
Полное имя : E:Music Video(Vocal Trance)(2008-2013)Andain - Promises.mp4
Формат : MPEG-4
Профиль формата : Base Media / Version 2
Идентификатор кодека : mp42
Размер файла : 117 Мбайт
Длительность : 4 м. 0 с.
Режим общего битрейта : Переменный
Общий поток : 4072 Кбит/сек
Дата кодирования : UTC 2011-05-31 12:17:10
Дата пометки : UTC 2011-05-31 12:17:10
gsst : 0
gstd : 240943
gssd : B2EE8CF49HH1358098222728771
gshh : r6---sn-hxb54vo-304e.c.youtube.com
Видео
Идентификатор : 1
Формат : AVC
Формат/Информация : Advanced Video Кодек
Профиль формата : High@L4.0
Параметр CABAC формата : Да
Параметр ReFrames формата : 1 кадр
Идентификатор кодека : avc1
Идентификатор кодека/Информация : Advanced Video Coding
Длительность : 4 м. 0 с.
Битрейт : 3914 Кбит/сек
Максимальный битрейт : 11,2 Мбит/сек
Ширина : 1920 пикселей
Высота : 1080 пикселей
Соотношение сторон : 16:9
Режим частоты кадров : Переменный
Частота кадров : 23,976 кадра/сек
Минимальная частота кадров : 17,241 кадров/сек
Максимальная частота кадров : 24,390 кадра/сек
Цветовое пространство : YUV
Субдискретизация насыщенности : 4:2:0
Битовая глубина : 8 бит
Тип развёртки : Прогрессивная
Бит/(Пиксели*Кадры) : 0.079
Размер потока : 112 Мбайт (96%)
Дата пометки : UTC 2011-05-31 12:17:11
Аудио
Идентификатор : 2
Формат : AAC
Формат/Информация : Advanced Audio Кодек
Профиль формата : LC
Идентификатор кодека : 40
Длительность : 4 м. 0 с.
Вид битрейта : Переменный
Битрейт : 152 Кбит/сек
Максимальный битрейт : 178 Кбит/сек
Каналы : 2 канала
Расположение каналов : Front: L R
Частота : 44,1 КГц
Метод сжатия : С потерями
Размер потока : 4,36 Мбайт (4%)
Дата кодирования : UTC 2011-05-31 12:17:10
Дата пометки : UTC 2011-05-31 12:17:11
Общее
Полное имя : E:Music Video(Vocal Trance)(2008-2013)Andain - Turn Up The Sound (Official Music Video).mp4
Формат : MPEG-4
Профиль формата : Base Media / Version 2
Идентификатор кодека : mp42
Размер файла : 86,1 Мбайт
Длительность : 4 м. 19 с.
Режим общего битрейта : Переменный
Общий поток : 2783 Кбит/сек
Дата кодирования : UTC 2012-07-18 09:48:17
Дата пометки : UTC 2012-07-18 09:48:17
gsst : 0
gstd : 259738
gssd : B2EE8CF45MH1358093092714033
gshh : r2---sn-hxb54vo-304e.c.youtube.com
Видео
Идентификатор : 1
Формат : AVC
Формат/Информация : Advanced Video Кодек
Профиль формата : High@L3.1
Параметр CABAC формата : Да
Параметр ReFrames формата : 1 кадр
Идентификатор кодека : avc1
Идентификатор кодека/Информация : Advanced Video Coding
Длительность : 4 м. 19 с.
Битрейт : 2588 Кбит/сек
Максимальный битрейт : 5849 Кбит/сек
Ширина : 1280 пикселей
Высота : 720 пикселей
Соотношение сторон : 16:9
Режим частоты кадров : Постоянный
Частота кадров : 23,976 кадра/сек
Цветовое пространство : YUV
Субдискретизация насыщенности : 4:2:0
Битовая глубина : 8 бит
Тип развёртки : Прогрессивная
Бит/(Пиксели*Кадры) : 0.117
Размер потока : 80,1 Мбайт (93%)
Дата пометки : UTC 2012-07-18 09:48:17
Аудио
Идентификатор : 2
Формат : AAC
Формат/Информация : Advanced Audio Кодек
Профиль формата : LC
Идентификатор кодека : 40
Длительность : 4 м. 19 с.
Вид битрейта : Переменный
Битрейт : 192 Кбит/сек
Максимальный битрейт : 202 Кбит/сек
Каналы : 2 канала
Расположение каналов : Front: L R
Частота : 44,1 КГц
Метод сжатия : С потерями
Размер потока : 5,94 Мбайт (7%)
Заголовок : IsoMedia File Produced by Google, 5-11-2011
Дата кодирования : UTC 2012-07-18 09:48:17
Дата пометки : UTC 2012-07-18 09:48:17
Общее
Полное имя : E:Music Video(Vocal Trance)(2008-2013)Avis Vox - Introspection Attemps (Moonbeam Mix).mp4
Формат : MPEG-4
Профиль формата : Base Media / Version 2
Идентификатор кодека : mp42
Размер файла : 50,5 Мбайт
Длительность : 3 м. 27 с.
Режим общего битрейта : Переменный
Общий поток : 2040 Кбит/сек
Дата кодирования : UTC 2010-07-25 10:26:38
Дата пометки : UTC 2010-07-25 10:26:38
gsst : 0
gstd : 207520
gssd : BADC23AC2MH1358087328989030
gshh : r2---sn-n8v7lnel.c.youtube.com
Видео
Идентификатор : 2
Формат : AVC
Формат/Информация : Advanced Video Кодек
Профиль формата : High@L3.1
Параметр CABAC формата : Да
Параметр ReFrames формата : 1 кадр
Идентификатор кодека : avc1
Идентификатор кодека/Информация : Advanced Video Coding
Длительность : 3 м. 27 с.
Битрейт : 1913 Кбит/сек
Максимальный битрейт : 4935 Кбит/сек
Ширина : 1280 пикселей
Высота : 720 пикселей
Соотношение сторон : 16:9
Режим частоты кадров : Постоянный
Частота кадров : 25,000 кадров/сек
Цветовое пространство : YUV
Субдискретизация насыщенности : 4:2:0
Битовая глубина : 8 бит
Тип развёртки : Прогрессивная
Бит/(Пиксели*Кадры) : 0.083
Размер потока : 47,3 Мбайт (94%)
Заголовок : (C) 2007 Google Inc. v08.13.2007.
Дата кодирования : UTC 2010-07-25 10:26:38
Дата пометки : UTC 2010-07-25 10:26:39
Аудио
Идентификатор : 1
Формат : AAC
Формат/Информация : Advanced Audio Кодек
Профиль формата : LC
Идентификатор кодека : 40
Длительность : 3 м. 26 с.
Вид битрейта : Переменный
Битрейт : 126 Кбит/сек
Максимальный битрейт : 167 Кбит/сек
Каналы : 2 канала
Расположение каналов : Front: L R
Частота : 44,1 КГц
Метод сжатия : С потерями
Размер потока : 3,10 Мбайт (6%)
Заголовок : (C) 2007 Google Inc. v08.13.2007.
Дата кодирования : UTC 2010-07-25 10:26:38
Дата пометки : UTC 2010-07-25 10:26:39
Общее
Полное имя : E:Music Video(Vocal Trance)(2008-2013)Betsie Larkin & John O'Callaghan - The Dream.mp4
Формат : MPEG-4
Профиль формата : Base Media / Version 2
Идентификатор кодека : mp42
Размер файла : 97,8 Мбайт
Длительность : 3 м. 38 с.
Режим общего битрейта : Переменный
Общий поток : 3759 Кбит/сек
Дата кодирования : UTC 2011-10-17 11:49:14
Дата пометки : UTC 2011-10-17 11:49:14
gsst : 0
gstd : 218175
gssd : BD075E007HH1358097504024712
gshh : r4---sn-2apm-f5fs.c.youtube.com
Видео
Идентификатор : 1
Формат : AVC
Формат/Информация : Advanced Video Кодек
Профиль формата : High@L4.0
Параметр CABAC формата : Да
Параметр ReFrames формата : 1 кадр
Идентификатор кодека : avc1
Идентификатор кодека/Информация : Advanced Video Coding
Длительность : 3 м. 38 с.
Битрейт : 3602 Кбит/сек
Максимальный битрейт : 11,7 Мбит/сек
Ширина : 1920 пикселей
Высота : 1080 пикселей
Соотношение сторон : 16:9
Режим частоты кадров : Переменный
Частота кадров : 23,976 кадра/сек
Минимальная частота кадров : 23,810 кадра/сек
Максимальная частота кадров : 24,390 кадра/сек
Цветовое пространство : YUV
Субдискретизация насыщенности : 4:2:0
Битовая глубина : 8 бит
Тип развёртки : Прогрессивная
Бит/(Пиксели*Кадры) : 0.072
Размер потока : 93,7 Мбайт (96%)
Дата пометки : UTC 2011-10-17 11:49:15
Аудио
Идентификатор : 2
Формат : AAC
Формат/Информация : Advanced Audio Кодек
Профиль формата : LC
Идентификатор кодека : 40
Длительность : 3 м. 38 с.
Вид битрейта : Переменный
Битрейт : 152 Кбит/сек
Максимальный битрейт : 179 Кбит/сек
Каналы : 2 канала
Расположение каналов : Front: L R
Частота : 44,1 КГц
Метод сжатия : С потерями
Размер потока : 3,95 Мбайт (4%)
Заголовок : IsoMedia File Produced by Google, 5-11-2011
Дата кодирования : UTC 2011-10-17 11:49:15
Дата пометки : UTC 2011-10-17 11:49:15
Общее
Полное имя : E:Music Video(Vocal Trance)(2008-2013)Betsie Larkin with Super8 & Tab - All We Have Is Now (Official Music Video).mp4
Формат : MPEG-4
Профиль формата : Base Media / Version 2
Идентификатор кодека : mp42
Размер файла : 62,7 Мбайт
Длительность : 3 м. 47 с.
Режим общего битрейта : Переменный
Общий поток : 2316 Кбит/сек
Дата кодирования : UTC 2011-07-07 14:59:48
Дата пометки : UTC 2011-07-07 14:59:48
gsst : 0
gstd : 227010
gssd : B2EE8CF48HH1358097928973931
gshh : r5---sn-hxb54vo-304e.c.youtube.com
Видео
Идентификатор : 1
Формат : AVC
Формат/Информация : Advanced Video Кодек
Профиль формата : High@L3.1
Параметр CABAC формата : Да
Параметр ReFrames формата : 1 кадр
Идентификатор кодека : avc1
Идентификатор кодека/Информация : Advanced Video Coding
Длительность : 3 м. 47 с.
Битрейт : 2160 Кбит/сек
Максимальный битрейт : 6934 Кбит/сек
Ширина : 1280 пикселей
Высота : 720 пикселей
Соотношение сторон : 16:9
Режим частоты кадров : Переменный
Частота кадров : 23,976 кадра/сек
Минимальная частота кадров : 17,241 кадров/сек
Максимальная частота кадров : 24,390 кадра/сек
Цветовое пространство : YUV
Субдискретизация насыщенности : 4:2:0
Битовая глубина : 8 бит
Тип развёртки : Прогрессивная
Бит/(Пиксели*Кадры) : 0.098
Размер потока : 58,5 Мбайт (93%)
Дата пометки : UTC 2011-07-07 14:59:53
Аудио
Идентификатор : 2
Формат : AAC
Формат/Информация : Advanced Audio Кодек
Профиль формата : LC
Идентификатор кодека : 40
Длительность : 3 м. 46 с.
Вид битрейта : Переменный
Битрейт : 151 Кбит/сек
Максимальный битрейт : 196 Кбит/сек
Каналы : 2 канала
Расположение каналов : Front: L R
Частота : 44,1 КГц
Метод сжатия : С потерями
Размер потока : 4,08 Мбайт (7%)
Заголовок : IsoMedia File Produced by Google, 5-11-2011
Дата кодирования : UTC 2011-07-07 14:59:51
Дата пометки : UTC 2011-07-07 14:59:53
Общее
Полное имя : E:Music Video(Vocal Trance)(2008-2013)Bobina & Betsie Larkin - You Belong To Me (Official Music Video).mp4
Формат : MPEG-4
Профиль формата : Base Media / Version 2
Идентификатор кодека : mp42
Размер файла : 58,3 Мбайт
Длительность : 3 м. 27 с.
Режим общего битрейта : Переменный
Общий поток : 2354 Кбит/сек
Дата кодирования : UTC 2011-06-29 07:17:13
Дата пометки : UTC 2011-06-29 07:17:13
gsst : 0
gstd : 207640
gssd : B2EE8CF49HH1358084767358401
gshh : r6---sn-hxb54vo-304e.c.youtube.com
Видео
Идентификатор : 1
Формат : AVC
Формат/Информация : Advanced Video Кодек
Профиль формата : High@L3.1
Параметр CABAC формата : Да
Параметр ReFrames формата : 1 кадр
Идентификатор кодека : avc1
Идентификатор кодека/Информация : Advanced Video Coding
Длительность : 3 м. 27 с.
Битрейт : 2198 Кбит/сек
Максимальный битрейт : 4826 Кбит/сек
Ширина : 1280 пикселей
Высота : 720 пикселей
Соотношение сторон : 16:9
Режим частоты кадров : Постоянный
Частота кадров : 25,000 кадров/сек
Цветовое пространство : YUV
Субдискретизация насыщенности : 4:2:0
Битовая глубина : 8 бит
Тип развёртки : Прогрессивная
Бит/(Пиксели*Кадры) : 0.095
Размер потока : 54,4 Мбайт (93%)
Дата пометки : UTC 2011-06-29 07:17:15
Аудио
Идентификатор : 2
Формат : AAC
Формат/Информация : Advanced Audio Кодек
Профиль формата : LC
Идентификатор кодека : 40
Длительность : 3 м. 27 с.
Вид битрейта : Переменный
Битрейт : 152 Кбит/сек
Максимальный битрейт : 178 Кбит/сек
Каналы : 2 канала
Расположение каналов : Front: L R
Частота : 44,1 КГц
Метод сжатия : С потерями
Размер потока : 3,76 Мбайт (6%)
Заголовок : IsoMedia File Produced by Google, 5-11-2011
Дата кодирования : UTC 2011-06-29 07:17:14
Дата пометки : UTC 2011-06-29 07:17:15
Общее
Полное имя : E:Music Video(Vocal Trance)(2008-2013)Bobina - Angel of the North [Official Music Video].mp4
Формат : MPEG-4
Профиль формата : Base Media / Version 2
Идентификатор кодека : mp42
Размер файла : 53,6 Мбайт
Длительность : 3 м. 26 с.
Режим общего битрейта : Переменный
Общий поток : 2176 Кбит/сек
Дата кодирования : UTC 2010-07-04 05:04:06
Дата пометки : UTC 2010-07-04 05:04:06
gsst : 0
gstd : 207145
gssd : BADC23AABMH1358084865779591
gshh : r11---sn-n8v7lnee.c.youtube.com
Видео
Идентификатор : 2
Формат : AVC
Формат/Информация : Advanced Video Кодек
Профиль формата : High@L3.1
Параметр CABAC формата : Да
Параметр ReFrames формата : 1 кадр
Идентификатор кодека : avc1
Идентификатор кодека/Информация : Advanced Video Coding
Длительность : 3 м. 26 с.
Битрейт : 2047 Кбит/сек
Максимальный битрейт : 9937 Кбит/сек
Ширина : 1280 пикселей
Высота : 720 пикселей
Соотношение сторон : 16:9
Режим частоты кадров : Постоянный
Частота кадров : 25,000 кадров/сек
Цветовое пространство : YUV
Субдискретизация насыщенности : 4:2:0
Битовая глубина : 8 бит
Тип развёртки : Прогрессивная
Бит/(Пиксели*Кадры) : 0.089
Размер потока : 50,4 Мбайт (94%)
Заголовок : (C) 2007 Google Inc. v08.13.2007.
Дата кодирования : UTC 2010-07-04 05:04:06
Дата пометки : UTC 2010-07-04 05:04:07
Аудио
Идентификатор : 1
Формат : AAC
Формат/Информация : Advanced Audio Кодек
Профиль формата : LC
Идентификатор кодека : 40
Длительность : 3 м. 26 с.
Вид битрейта : Переменный
Битрейт : 126 Кбит/сек
Максимальный битрейт : 228 Кбит/сек
Каналы : 2 канала
Расположение каналов : Front: L R
Частота : 44,1 КГц
Метод сжатия : С потерями
Размер потока : 3,10 Мбайт (6%)
Заголовок : (C) 2007 Google Inc. v08.13.2007.
Дата кодирования : UTC 2010-07-04 05:04:06
Дата пометки : UTC 2010-07-04 05:04:07
Общее
Полное имя : E:Music Video(Vocal Trance)(2008-2013)BT - A Million Stars (feat. Kirsty Hawkshaw) [Official Music Video].mp4
Формат : MPEG-4
Профиль формата : Base Media / Version 2
Идентификатор кодека : mp42
Размер файла : 129 Мбайт
Длительность : 6 м. 35 с.
Режим общего битрейта : Переменный
Общий поток : 2734 Кбит/сек
Дата кодирования : UTC 2011-07-18 17:24:27
Дата пометки : UTC 2011-07-18 17:24:27
gsst : 0
gstd : 395400
gssd : B2EE8CF4BMH1358085074511295
gshh : r8---sn-hxb54vo-304e.c.youtube.com
Видео
Идентификатор : 1
Формат : AVC
Формат/Информация : Advanced Video Кодек
Профиль формата : High@L3.1
Параметр CABAC формата : Да
Параметр ReFrames формата : 1 кадр
Параметр GOP формата : M=1, N=30
Идентификатор кодека : avc1
Идентификатор кодека/Информация : Advanced Video Coding
Длительность : 6 м. 35 с.
Битрейт : 2577 Кбит/сек
Максимальный битрейт : 9256 Кбит/сек
Ширина : 1280 пикселей
Высота : 720 пикселей
Соотношение сторон : 16:9
Режим частоты кадров : Постоянный
Частота кадров : 25,000 кадров/сек
Цветовое пространство : YUV
Субдискретизация насыщенности : 4:2:0
Битовая глубина : 8 бит
Тип развёртки : Прогрессивная
Бит/(Пиксели*Кадры) : 0.112
Размер потока : 121 Мбайт (94%)
Дата пометки : UTC 2011-07-18 17:24:29
Аудио
Идентификатор : 2
Формат : AAC
Формат/Информация : Advanced Audio Кодек
Профиль формата : LC
Идентификатор кодека : 40
Длительность : 6 м. 35 с.
Вид битрейта : Переменный
Битрейт : 152 Кбит/сек
Максимальный битрейт : 181 Кбит/сек
Каналы : 2 канала
Расположение каналов : Front: L R
Частота : 44,1 КГц
Метод сжатия : С потерями
Размер потока : 7,16 Мбайт (6%)
Заголовок : IsoMedia File Produced by Google, 5-11-2011
Дата кодирования : UTC 2011-07-18 17:24:28
Дата пометки : UTC 2011-07-18 17:24:29
Общее
Полное имя : E:Music Video(Vocal Trance)(2008-2013)BT feat. JES - Every Other Way (Armin Van Buuren Remix).mp4
Формат : MPEG-4
Профиль формата : Base Media / Version 2
Идентификатор кодека : mp42
Размер файла : 127 Мбайт
Длительность : 4 м. 6 с.
Режим общего битрейта : Переменный
Общий поток : 4328 Кбит/сек
Дата кодирования : UTC 2010-10-27 08:37:14
Дата пометки : UTC 2010-10-27 08:37:14
gsst : 0
gstd : 246170
gssd : B2E1CF747HH1358523793444118
gshh : r4---sn-2apm-f5fr.c.youtube.com
Видео
Идентификатор : 1
Формат : AVC
Формат/Информация : Advanced Video Кодек
Профиль формата : High@L4.0
Параметр CABAC формата : Да
Параметр ReFrames формата : 1 кадр
Параметр GOP формата : M=1, N=30
Идентификатор кодека : avc1
Идентификатор кодека/Информация : Advanced Video Coding
Длительность : 4 м. 6 с.
Битрейт : 4195 Кбит/сек
Максимальный битрейт : 13,0 Мбит/сек
Ширина : 1920 пикселей
Высота : 1080 пикселей
Соотношение сторон : 16:9
Режим частоты кадров : Переменный
Частота кадров : 29,970 кадров/сек
Минимальная частота кадров : 29,412 кадров/сек
Максимальная частота кадров : 200,000 кадров/сек
Цветовое пространство : YUV
Субдискретизация насыщенности : 4:2:0
Битовая глубина : 8 бит
Тип развёртки : Прогрессивная
Бит/(Пиксели*Кадры) : 0.068
Размер потока : 123 Мбайт (97%)
Дата пометки : UTC 2010-10-27 08:37:19
Аудио
Идентификатор : 2
Формат : AAC
Формат/Информация : Advanced Audio Кодек
Профиль формата : LC
Идентификатор кодека : 40
Длительность : 4 м. 6 с.
Вид битрейта : Переменный
Битрейт : 127 Кбит/сек
Максимальный битрейт : 217 Кбит/сек
Каналы : 2 канала
Расположение каналов : Front: L R
Частота : 44,1 КГц
Метод сжатия : С потерями
Размер потока : 3,72 Мбайт (3%)
Заголовок : (C) 2007 Google Inc. v08.13.2007.
Дата кодирования : UTC 2010-10-27 08:37:17
Дата пометки : UTC 2010-10-27 08:37:19
Общее
Полное имя : E:Music Video(Vocal Trance)(2008-2013)BT featuring Kirsty Hawkshaw - A Million Stars.mp4
Формат : MPEG-4
Профиль формата : Base Media / Version 2
Идентификатор кодека : mp42
Размер файла : 129 Мбайт
Длительность : 6 м. 35 с.
Режим общего битрейта : Переменный
Общий поток : 2734 Кбит/сек
Дата кодирования : UTC 2011-07-17 14:40:23
Дата пометки : UTC 2011-07-17 14:40:23
gsst : 0
gstd : 395400
gssd : B2EE8CF49MM1358097882310826
gshh : r6---sn-hxb54vo-304e.c.youtube.com
Видео
Идентификатор : 1
Формат : AVC
Формат/Информация : Advanced Video Кодек
Профиль формата : High@L3.1
Параметр CABAC формата : Да
Параметр ReFrames формата : 1 кадр
Параметр GOP формата : M=1, N=30
Идентификатор кодека : avc1
Идентификатор кодека/Информация : Advanced Video Coding
Длительность : 6 м. 35 с.
Битрейт : 2577 Кбит/сек
Максимальный битрейт : 9256 Кбит/сек
Ширина : 1280 пикселей
Высота : 720 пикселей
Соотношение сторон : 16:9
Режим частоты кадров : Постоянный
Частота кадров : 25,000 кадров/сек
Цветовое пространство : YUV
Субдискретизация насыщенности : 4:2:0
Битовая глубина : 8 бит
Тип развёртки : Прогрессивная
Бит/(Пиксели*Кадры) : 0.112
Размер потока : 121 Мбайт (94%)
Дата пометки : UTC 2011-07-17 14:40:25
Аудио
Идентификатор : 2
Формат : AAC
Формат/Информация : Advanced Audio Кодек
Профиль формата : LC
Идентификатор кодека : 40
Длительность : 6 м. 35 с.
Вид битрейта : Переменный
Битрейт : 152 Кбит/сек
Максимальный битрейт : 181 Кбит/сек
Каналы : 2 канала
Расположение каналов : Front: L R
Частота : 44,1 КГц
Метод сжатия : С потерями
Размер потока : 7,16 Мбайт (6%)
Заголовок : IsoMedia File Produced by Google, 5-11-2011
Дата кодирования : UTC 2011-07-17 14:40:23
Дата пометки : UTC 2011-07-17 14:40:25
Общее
Полное имя : E:Music Video(Vocal Trance)(2008-2013)Cosmic Gate & Emma Hewitt - Be Your Sound.mp4
Формат : MPEG-4
Профиль формата : Base Media / Version 2
Идентификатор кодека : mp42
Размер файла : 132 Мбайт
Длительность : 4 м. 13 с.
Режим общего битрейта : Переменный
Общий поток : 4360 Кбит/сек
Дата кодирования : UTC 2011-11-07 10:14:31
Дата пометки : UTC 2011-11-07 10:14:31
gsst : 0
gstd : 253213
gssd : BD075E009HH1358087860496841
gshh : r6---sn-2apm-f5fs.c.youtube.com
Видео
Идентификатор : 1
Формат : AVC
Формат/Информация : Advanced Video Кодек
Профиль формата : High@L4.0
Параметр CABAC формата : Да
Параметр ReFrames формата : 1 кадр
Идентификатор кодека : avc1
Идентификатор кодека/Информация : Advanced Video Coding
Длительность : 4 м. 13 с.
Битрейт : 4205 Кбит/сек
Максимальный битрейт : 15,8 Мбит/сек
Ширина : 1920 пикселей
Высота : 1080 пикселей
Соотношение сторон : 16:9
Режим частоты кадров : Переменный
Частота кадров : 23,976 кадра/сек
Минимальная частота кадров : 23,762 кадра/сек
Максимальная частота кадров : 24,341 кадра/сек
Цветовое пространство : YUV
Субдискретизация насыщенности : 4:2:0
Битовая глубина : 8 бит
Тип развёртки : Прогрессивная
Бит/(Пиксели*Кадры) : 0.085
Размер потока : 127 Мбайт (96%)
Дата пометки : UTC 2011-11-07 10:14:32
Аудио
Идентификатор : 2
Формат : AAC
Формат/Информация : Advanced Audio Кодек
Профиль формата : LC
Идентификатор кодека : 40
Длительность : 4 м. 13 с.
Вид битрейта : Переменный
Битрейт : 152 Кбит/сек
Максимальный битрейт : 201 Кбит/сек
Каналы : 2 канала
Расположение каналов : Front: L R
Частота : 44,1 КГц
Метод сжатия : С потерями
Размер потока : 4,59 Мбайт (3%)
Заголовок : IsoMedia File Produced by Google, 5-11-2011
Дата кодирования : UTC 2011-11-07 10:14:32
Дата пометки : UTC 2011-11-07 10:14:32
Общее
Полное имя : E:Music Video(Vocal Trance)(2008-2013)Daniel Kandi feat. Sarah Russell - Change the World (OFFICIAL MUSIC VIDEO).mp4
Формат : MPEG-4
Профиль формата : Base Media / Version 2
Идентификатор кодека : mp42
Размер файла : 97,1 Мбайт
Длительность : 3 м. 51 с.
Режим общего битрейта : Переменный
Общий поток : 3525 Кбит/сек
Дата кодирования : UTC 2012-12-16 13:06:12
Дата пометки : UTC 2012-12-16 13:06:12
gsst : 0
gstd : 231130
gssd : B2E1CF745HH1358083334929650
gshh : r2---sn-2apm-f5fr.c.youtube.com
Видео
Идентификатор : 1
Формат : AVC
Формат/Информация : Advanced Video Кодек
Профиль формата : High@L4.0
Параметр CABAC формата : Да
Параметр ReFrames формата : 1 кадр
Параметр GOP формата : M=1, N=50
Идентификатор кодека : avc1
Идентификатор кодека/Информация : Advanced Video Coding
Длительность : 3 м. 51 с.
Битрейт : 3330 Кбит/сек
Максимальный битрейт : 6960 Кбит/сек
Ширина : 1920 пикселей
Высота : 1080 пикселей
Соотношение сторон : 16:9
Режим частоты кадров : Постоянный
Частота кадров : 25,000 кадров/сек
Цветовое пространство : YUV
Субдискретизация насыщенности : 4:2:0
Битовая глубина : 8 бит
Тип развёртки : Прогрессивная
Бит/(Пиксели*Кадры) : 0.064
Размер потока : 91,7 Мбайт (94%)
Дата пометки : UTC 2012-12-16 13:06:12
Аудио
Идентификатор : 2
Формат : AAC
Формат/Информация : Advanced Audio Кодек
Профиль формата : LC
Идентификатор кодека : 40
Длительность : 3 м. 50 с.
Вид битрейта : Переменный
Битрейт : 192 Кбит/сек
Максимальный битрейт : 202 Кбит/сек
Каналы : 2 канала
Расположение каналов : Front: L R
Частота : 44,1 КГц
Метод сжатия : С потерями
Размер потока : 5,29 Мбайт (5%)
Заголовок : IsoMedia File Produced by Google, 5-11-2011
Дата кодирования : UTC 2012-12-16 13:06:12
Дата пометки : UTC 2012-12-16 13:06:12
Общее
Полное имя : E:Music Video(Vocal Trance)(2008-2013)Estiva & Cardinal feat. Arielle Maren - Wait Forever (Official Music Video).mp4
Формат : MPEG-4
Профиль формата : Base Media / Version 2
Идентификатор кодека : mp42
Размер файла : 78,5 Мбайт
Длительность : 4 м. 4 с.
Режим общего битрейта : Переменный
Общий поток : 2700 Кбит/сек
Дата кодирования : UTC 2012-12-19 18:30:14
Дата пометки : UTC 2012-12-19 18:30:14
gsst : 0
gstd : 244180
gssd : B2E1CF746MM1358083212733294
gshh : r3---sn-2apm-f5fr.c.youtube.com
Видео
Идентификатор : 1
Формат : AVC
Формат/Информация : Advanced Video Кодек
Профиль формата : High@L4.0
Параметр CABAC формата : Да
Параметр ReFrames формата : 1 кадр
Идентификатор кодека : avc1
Идентификатор кодека/Информация : Advanced Video Coding
Длительность : 4 м. 4 с.
Битрейт : 2505 Кбит/сек
Максимальный битрейт : 5608 Кбит/сек
Ширина : 1920 пикселей
Высота : 1080 пикселей
Соотношение сторон : 16:9
Режим частоты кадров : Постоянный
Частота кадров : 25,000 кадров/сек
Цветовое пространство : YUV
Субдискретизация насыщенности : 4:2:0
Битовая глубина : 8 бит
Тип развёртки : Прогрессивная
Бит/(Пиксели*Кадры) : 0.048
Размер потока : 72,9 Мбайт (93%)
Дата пометки : UTC 2012-12-19 18:30:15
Аудио
Идентификатор : 2
Формат : AAC
Формат/Информация : Advanced Audio Кодек
Профиль формата : LC
Идентификатор кодека : 40
Длительность : 4 м. 4 с.
Вид битрейта : Переменный
Битрейт : 192 Кбит/сек
Максимальный битрейт : 201 Кбит/сек
Каналы : 2 канала
Расположение каналов : Front: L R
Частота : 44,1 КГц
Метод сжатия : С потерями
Размер потока : 5,59 Мбайт (7%)
Заголовок : IsoMedia File Produced by Google, 5-11-2011
Дата кодирования : UTC 2012-12-19 18:30:15
Дата пометки : UTC 2012-12-19 18:30:15
Общее
Полное имя : E:Music Video(Vocal Trance)(2008-2013)Estiva feat. Josie - Better Days [Official Music Video].mp4
Формат : MPEG-4
Профиль формата : Base Media / Version 2
Идентификатор кодека : mp42
Размер файла : 123 Мбайт
Длительность : 3 м. 35 с.
Режим общего битрейта : Переменный
Общий поток : 4814 Кбит/сек
Дата кодирования : UTC 2011-07-03 10:46:52
Дата пометки : UTC 2011-07-03 10:46:52
gsst : 0
gstd : 215200
gssd : BADC23AA9HH1358083633255898
gshh : r9---sn-n8v7lnee.c.youtube.com
Видео
Идентификатор : 1
Формат : AVC
Формат/Информация : Advanced Video Кодек
Профиль формата : High@L4.0
Параметр CABAC формата : Да
Параметр ReFrames формата : 1 кадр
Идентификатор кодека : avc1
Идентификатор кодека/Информация : Advanced Video Coding
Длительность : 3 м. 35 с.
Битрейт : 4658 Кбит/сек
Максимальный битрейт : 8281 Кбит/сек
Ширина : 1920 пикселей
Высота : 1080 пикселей
Соотношение сторон : 16:9
Режим частоты кадров : Постоянный
Частота кадров : 25,000 кадров/сек
Цветовое пространство : YUV
Субдискретизация насыщенности : 4:2:0
Битовая глубина : 8 бит
Тип развёртки : Прогрессивная
Бит/(Пиксели*Кадры) : 0.090
Размер потока : 119 Мбайт (97%)
Дата пометки : UTC 2011-07-03 10:46:55
Аудио
Идентификатор : 2
Формат : AAC
Формат/Информация : Advanced Audio Кодек
Профиль формата : LC
Идентификатор кодека : 40
Длительность : 3 м. 35 с.
Вид битрейта : Переменный
Битрейт : 151 Кбит/сек
Максимальный битрейт : 190 Кбит/сек
Каналы : 2 канала
Расположение каналов : Front: L R
Частота : 44,1 КГц
Метод сжатия : С потерями
Размер потока : 3,89 Мбайт (3%)
Заголовок : IsoMedia File Produced by Google, 5-11-2011
Дата кодирования : UTC 2011-07-03 10:46:54
Дата пометки : UTC 2011-07-03 10:46:55
Общее
Полное имя : E:Music Video(Vocal Trance)(2008-2013)Gareth Emery feat. Christina Novelli - Concrete Angel [Official Music Video].mp4
Формат : MPEG-4
Профиль формата : Base Media / Version 2
Идентификатор кодека : mp42
Размер файла : 112 Мбайт
Длительность : 3 м. 59 с.
Режим общего битрейта : Переменный
Общий поток : 3941 Кбит/сек
Дата кодирования : UTC 2012-01-08 23:49:19
Дата пометки : UTC 2012-01-08 23:49:19
gsst : 0
gstd : 239280
gssd : B2E1CF64AHH1358084312915080
gshh : r7---sn-2apm-f5fd.c.youtube.com
Видео
Идентификатор : 1
Формат : AVC
Формат/Информация : Advanced Video Кодек
Профиль формата : High@L4.0
Параметр CABAC формата : Да
Параметр ReFrames формата : 1 кадр
Идентификатор кодека : avc1
Идентификатор кодека/Информация : Advanced Video Coding
Длительность : 3 м. 59 с.
Битрейт : 3790 Кбит/сек
Максимальный битрейт : 10,7 Мбит/сек
Ширина : 1920 пикселей
Высота : 1080 пикселей
Соотношение сторон : 16:9
Режим частоты кадров : Постоянный
Частота кадров : 23,976 кадра/сек
Цветовое пространство : YUV
Субдискретизация насыщенности : 4:2:0
Битовая глубина : 8 бит
Тип развёртки : Прогрессивная
Бит/(Пиксели*Кадры) : 0.076
Размер потока : 108 Мбайт (96%)
Дата пометки : UTC 2012-01-08 23:49:19
Аудио
Идентификатор : 2
Формат : AAC
Формат/Информация : Advanced Audio Кодек
Профиль формата : LC
Идентификатор кодека : 40
Длительность : 3 м. 59 с.
Вид битрейта : Переменный
Битрейт : 149 Кбит/сек
Максимальный битрейт : 168 Кбит/сек
Каналы : 2 канала
Расположение каналов : Front: L R
Частота : 44,1 КГц
Метод сжатия : С потерями
Размер потока : 4,26 Мбайт (4%)
Заголовок : IsoMedia File Produced by Google, 5-11-2011
Дата кодирования : UTC 2012-01-08 23:49:19
Дата пометки : UTC 2012-01-08 23:49:19
Общее
Полное имя : E:Music Video(Vocal Trance)(2008-2013)Gareth Emery feat. Lucy Saunders - Fight The Sunrise [Official Music Video].mp4
Формат : MPEG-4
Профиль формата : Base Media / Version 2
Идентификатор кодека : mp42
Размер файла : 51,2 Мбайт
Длительность : 3 м. 39 с.
Режим общего битрейта : Переменный
Общий поток : 1955 Кбит/сек
Дата кодирования : UTC 2011-04-13 08:51:11
Дата пометки : UTC 2011-04-13 08:51:11
gsst : 0
gstd : 219760
gssd : BD9774F06HH1358084464085413
gshh : r3---sn-2apm-f5fy.c.youtube.com
Видео
Идентификатор : 1
Формат : AVC
Формат/Информация : Advanced Video Кодек
Профиль формата : High@L3.1
Параметр CABAC формата : Да
Параметр ReFrames формата : 1 кадр
Идентификатор кодека : avc1
Идентификатор кодека/Информация : Advanced Video Coding
Длительность : 3 м. 39 с.
Битрейт : 1800 Кбит/сек
Максимальный битрейт : 4153 Кбит/сек
Ширина : 1280 пикселей
Высота : 720 пикселей
Соотношение сторон : 16:9
Режим частоты кадров : Постоянный
Частота кадров : 25,000 кадров/сек
Цветовое пространство : YUV
Субдискретизация насыщенности : 4:2:0
Битовая глубина : 8 бит
Тип развёртки : Прогрессивная
Бит/(Пиксели*Кадры) : 0.078
Размер потока : 47,2 Мбайт (92%)
Дата пометки : UTC 2011-04-13 08:51:15
Аудио
Идентификатор : 2
Формат : AAC
Формат/Информация : Advanced Audio Кодек
Профиль формата : LC
Идентификатор кодека : 40
Длительность : 3 м. 39 с.
Вид битрейта : Переменный
Битрейт : 151 Кбит/сек
Максимальный битрейт : 237 Кбит/сек
Каналы : 2 канала
Расположение каналов : Front: L R
Частота : 44,1 КГц
Метод сжатия : С потерями
Размер потока : 3,95 Мбайт (8%)
Заголовок : (C) 2007 Google Inc. v08.13.2007.
Дата кодирования : UTC 2011-04-13 08:51:13
Дата пометки : UTC 2011-04-13 08:51:15
Общее
Полное имя : E:Music Video(Vocal Trance)(2008-2013)George Acosta feat. Fisher - True Love (Director's Cut).mp4
Формат : MPEG-4
Профиль формата : Base Media / Version 2
Идентификатор кодека : mp42
Размер файла : 56,1 Мбайт
Длительность : 4 м. 45 с.
Режим общего битрейта : Переменный
Общий поток : 1647 Кбит/сек
Дата кодирования : UTC 2011-06-23 10:03:32
Дата пометки : UTC 2011-06-23 10:03:32
gsst : 0
gstd : 285905
gssd : B2EE8CF4AMM1358097993972710
gshh : r7---sn-hxb54vo-304e.c.youtube.com
Видео
Идентификатор : 1
Формат : AVC
Формат/Информация : Advanced Video Кодек
Профиль формата : High@L3.1
Параметр CABAC формата : Да
Параметр ReFrames формата : 1 кадр
Параметр GOP формата : M=1, N=30
Идентификатор кодека : avc1
Идентификатор кодека/Информация : Advanced Video Coding
Длительность : 4 м. 45 с.
Битрейт : 1489 Кбит/сек
Максимальный битрейт : 3284 Кбит/сек
Ширина : 1280 пикселей
Высота : 720 пикселей
Соотношение сторон : 16:9
Режим частоты кадров : Переменный
Частота кадров : 23,976 кадра/сек
Минимальная частота кадров : 17,241 кадров/сек
Максимальная частота кадров : 24,390 кадра/сек
Цветовое пространство : YUV
Субдискретизация насыщенности : 4:2:0
Битовая глубина : 8 бит
Тип развёртки : Прогрессивная
Бит/(Пиксели*Кадры) : 0.067
Размер потока : 50,8 Мбайт (90%)
Дата пометки : UTC 2011-06-23 10:03:39
Аудио
Идентификатор : 2
Формат : AAC
Формат/Информация : Advanced Audio Кодек
Профиль формата : LC
Идентификатор кодека : 40
Длительность : 4 м. 45 с.
Вид битрейта : Переменный
Битрейт : 152 Кбит/сек
Максимальный битрейт : 186 Кбит/сек
Каналы : 2 канала
Расположение каналов : Front: L R
Частота : 44,1 КГц
Метод сжатия : С потерями
Размер потока : 5,18 Мбайт (9%)
Заголовок : IsoMedia File Produced by Google, 5-11-2011
Дата кодирования : UTC 2011-06-23 10:03:35
Дата пометки : UTC 2011-06-23 10:03:39
Общее
Полное имя : E:Music Video(Vocal Trance)(2008-2013)George Acosta feat. Fisher - True Love (Official Music Video).mp4
Формат : MPEG-4
Профиль формата : Base Media / Version 2
Идентификатор кодека : mp42
Размер файла : 88,7 Мбайт
Длительность : 4 м. 4 с.
Режим общего битрейта : Переменный
Общий поток : 3043 Кбит/сек
Дата кодирования : UTC 2011-06-19 07:57:16
Дата пометки : UTC 2011-06-19 07:57:16
gsst : 0
gstd : 244526
gssd : B2EE8CF4BMH1358098043803730
gshh : r8---sn-hxb54vo-304e.c.youtube.com
Видео
Идентификатор : 1
Формат : AVC
Формат/Информация : Advanced Video Кодек
Профиль формата : High@L4.0
Параметр CABAC формата : Да
Параметр ReFrames формата : 1 кадр
Параметр GOP формата : M=1, N=22
Идентификатор кодека : avc1
Идентификатор кодека/Информация : Advanced Video Coding
Длительность : 4 м. 4 с.
Битрейт : 2885 Кбит/сек
Максимальный битрейт : 7657 Кбит/сек
Ширина : 1920 пикселей
Высота : 1080 пикселей
Соотношение сторон : 16:9
Режим частоты кадров : Переменный
Частота кадров : 23,976 кадра/сек
Минимальная частота кадров : 17,241 кадров/сек
Максимальная частота кадров : 24,390 кадра/сек
Цветовое пространство : YUV
Субдискретизация насыщенности : 4:2:0
Битовая глубина : 8 бит
Тип развёртки : Прогрессивная
Бит/(Пиксели*Кадры) : 0.058
Размер потока : 84,1 Мбайт (95%)
Дата пометки : UTC 2011-06-19 07:57:26
Аудио
Идентификатор : 2
Формат : AAC
Формат/Информация : Advanced Audio Кодек
Профиль формата : LC
Идентификатор кодека : 40
Длительность : 4 м. 4 с.
Вид битрейта : Переменный
Битрейт : 152 Кбит/сек
Максимальный битрейт : 181 Кбит/сек
Каналы : 2 канала
Расположение каналов : Front: L R
Частота : 44,1 КГц
Метод сжатия : С потерями
Размер потока : 4,43 Мбайт (5%)
Заголовок : IsoMedia File Produced by Google, 5-11-2011
Дата кодирования : UTC 2011-06-19 07:57:21
Дата пометки : UTC 2011-06-19 07:57:26
Общее
Полное имя : E:Music Video(Vocal Trance)(2008-2013)JES & Andy Duguid - Before You Go (Timothy Allan & Loverush Radio Edit).mp4
Формат : MPEG-4
Профиль формата : Base Media / Version 2
Идентификатор кодека : mp42
Размер файла : 44,4 Мбайт
Длительность : 3 м. 14 с.
Режим общего битрейта : Переменный
Общий поток : 1912 Кбит/сек
Дата кодирования : UTC 2012-11-21 13:11:59
Дата пометки : UTC 2012-11-21 13:11:59
gsst : 0
gstd : 195093
gssd : B2EE8CF46MM1358088413686582
gshh : r3---sn-hxb54vo-304e.c.youtube.com
Видео
Идентификатор : 1
Формат : AVC
Формат/Информация : Advanced Video Кодек
Профиль формата : High@L3.1
Параметр CABAC формата : Да
Параметр ReFrames формата : 1 кадр
Идентификатор кодека : avc1
Идентификатор кодека/Информация : Advanced Video Coding
Длительность : 3 м. 14 с.
Битрейт : 1718 Кбит/сек
Максимальный битрейт : 5950 Кбит/сек
Ширина : 1280 пикселей
Высота : 720 пикселей
Соотношение сторон : 16:9
Режим частоты кадров : Постоянный
Частота кадров : 25,000 кадров/сек
Цветовое пространство : YUV
Субдискретизация насыщенности : 4:2:0
Битовая глубина : 8 бит
Тип развёртки : Прогрессивная
Бит/(Пиксели*Кадры) : 0.075
Размер потока : 39,9 Мбайт (90%)
Дата пометки : UTC 2012-11-21 13:11:59
Аудио
Идентификатор : 2
Формат : AAC
Формат/Информация : Advanced Audio Кодек
Профиль формата : LC
Идентификатор кодека : 40
Длительность : 3 м. 14 с.
Вид битрейта : Переменный
Битрейт : 192 Кбит/сек
Максимальный битрейт : 202 Кбит/сек
Каналы : 2 канала
Расположение каналов : Front: L R
Частота : 44,1 КГц
Метод сжатия : С потерями
Размер потока : 4,46 Мбайт (10%)
Заголовок : IsoMedia File Produced by Google, 5-11-2011
Дата кодирования : UTC 2012-11-21 13:11:59
Дата пометки : UTC 2012-11-21 13:11:59
Общее
Полное имя : E:Music Video(Vocal Trance)(2008-2013)JES & Ronski Speed - Can't Stop.mp4
Формат : MPEG-4
Профиль формата : Base Media / Version 2
Идентификатор кодека : mp42
Размер файла : 98,0 Мбайт
Длительность : 3 м. 57 с.
Режим общего битрейта : Переменный
Общий поток : 3457 Кбит/сек
Дата кодирования : UTC 2012-01-01 12:35:43
Дата пометки : UTC 2012-01-01 12:35:43
gsst : 0
gstd : 237771
gssd : B2E3D9B89MH1358097255433158
gshh : r6---sn-gvnuxaxjvh-n8vs.c.youtube.com
Видео
Идентификатор : 1
Формат : AVC
Формат/Информация : Advanced Video Кодек
Профиль формата : High@L4.0
Параметр CABAC формата : Да
Параметр ReFrames формата : 1 кадр
Идентификатор кодека : avc1
Идентификатор кодека/Информация : Advanced Video Coding
Длительность : 3 м. 57 с.
Битрейт : 3303 Кбит/сек
Максимальный битрейт : 6724 Кбит/сек
Ширина : 1920 пикселей
Высота : 1080 пикселей
Соотношение сторон : 16:9
Режим частоты кадров : Постоянный
Частота кадров : 23,976 кадра/сек
Цветовое пространство : YUV
Субдискретизация насыщенности : 4:2:0
Битовая глубина : 8 бит
Тип развёртки : Прогрессивная
Бит/(Пиксели*Кадры) : 0.066
Размер потока : 93,6 Мбайт (96%)
Дата пометки : UTC 2012-01-01 12:35:44
Аудио
Идентификатор : 2
Формат : AAC
Формат/Информация : Advanced Audio Кодек
Профиль формата : LC
Идентификатор кодека : 40
Длительность : 3 м. 57 с.
Вид битрейта : Переменный
Битрейт : 152 Кбит/сек
Максимальный битрейт : 185 Кбит/сек
Каналы : 2 канала
Расположение каналов : Front: L R
Частота : 44,1 КГц
Метод сжатия : С потерями
Размер потока : 4,30 Мбайт (4%)
Заголовок : IsoMedia File Produced by Google, 5-11-2011
Дата кодирования : UTC 2012-01-01 12:35:44
Дата пометки : UTC 2012-01-01 12:35:44
Общее
Полное имя : E:Music Video(Vocal Trance)(2008-2013)JES - Awaken.mp4
Формат : MPEG-4
Профиль формата : Base Media / Version 2
Идентификатор кодека : mp42
Размер файла : 122 Мбайт
Длительность : 3 м. 25 с.
Режим общего битрейта : Переменный
Общий поток : 5002 Кбит/сек
Дата кодирования : UTC 2011-01-24 09:39:14
Дата пометки : UTC 2011-01-24 09:39:14
gsst : 0
gstd : 205186
gssd : BADC23A42MH1358086419053039
gshh : r2---sn-n8v7ln7r.c.youtube.com
Видео
Идентификатор : 1
Формат : AVC
Формат/Информация : Advanced Video Кодек
Профиль формата : High@L4.0
Параметр CABAC формата : Да
Параметр ReFrames формата : 1 кадр
Идентификатор кодека : avc1
Идентификатор кодека/Информация : Advanced Video Coding
Длительность : 3 м. 25 с.
Битрейт : 4868 Кбит/сек
Максимальный битрейт : 15,8 Мбит/сек
Ширина : 1920 пикселей
Высота : 1080 пикселей
Соотношение сторон : 16:9
Режим частоты кадров : Переменный
Частота кадров : 23,976 кадра/сек
Минимальная частота кадров : 17,241 кадров/сек
Максимальная частота кадров : 24,390 кадра/сек
Цветовое пространство : YUV
Субдискретизация насыщенности : 4:2:0
Битовая глубина : 8 бит
Тип развёртки : Прогрессивная
Бит/(Пиксели*Кадры) : 0.098
Размер потока : 119 Мбайт (97%)
Дата пометки : UTC 2011-01-24 09:39:17
Аудио
Идентификатор : 2
Формат : AAC
Формат/Информация : Advanced Audio Кодек
Профиль формата : LC
Идентификатор кодека : 40
Длительность : 3 м. 25 с.
Вид битрейта : Переменный
Битрейт : 128 Кбит/сек
Максимальный битрейт : 163 Кбит/сек
Каналы : 2 канала
Расположение каналов : Front: L R
Частота : 44,1 КГц
Метод сжатия : С потерями
Размер потока : 3,13 Мбайт (3%)
Заголовок : (C) 2007 Google Inc. v08.13.2007.
Дата кодирования : UTC 2011-01-24 09:39:15
Дата пометки : UTC 2011-01-24 09:39:17
Общее
Полное имя : E:Music Video(Vocal Trance)(2008-2013)JES - Closer (Bimbo Jones Radio Edit).mp4
Формат : MPEG-4
Профиль формата : Base Media / Version 2
Идентификатор кодека : mp42
Размер файла : 88,9 Мбайт
Длительность : 3 м. 19 с.
Режим общего битрейта : Переменный
Общий поток : 3747 Кбит/сек
Дата кодирования : UTC 2010-09-30 07:58:18
Дата пометки : UTC 2010-09-30 07:58:18
gsst : 0
gstd : 199021
gssd : B4A7DDA24MH1358086968615884
gshh : r4---sn-4g57kuel.c.youtube.com
Видео
Идентификатор : 1
Формат : AVC
Формат/Информация : Advanced Video Кодек
Профиль формата : High@L4.0
Параметр CABAC формата : Да
Параметр ReFrames формата : 1 кадр
Идентификатор кодека : avc1
Идентификатор кодека/Информация : Advanced Video Coding
Длительность : 3 м. 19 с.
Битрейт : 3613 Кбит/сек
Максимальный битрейт : 5813 Кбит/сек
Ширина : 1920 пикселей
Высота : 1080 пикселей
Соотношение сторон : 16:9
Режим частоты кадров : Переменный
Частота кадров : 23,976 кадра/сек
Минимальная частота кадров : 17,241 кадров/сек
Максимальная частота кадров : 24,390 кадра/сек
Цветовое пространство : YUV
Субдискретизация насыщенности : 4:2:0
Битовая глубина : 8 бит
Тип развёртки : Прогрессивная
Бит/(Пиксели*Кадры) : 0.073
Размер потока : 85,7 Мбайт (96%)
Дата пометки : UTC 2010-09-30 07:58:24
Аудио
Идентификатор : 2
Формат : AAC
Формат/Информация : Advanced Audio Кодек
Профиль формата : LC
Идентификатор кодека : 40
Длительность : 3 м. 18 с.
Вид битрейта : Переменный
Битрейт : 128 Кбит/сек
Максимальный битрейт : 151 Кбит/сек
Каналы : 2 канала
Расположение каналов : Front: L R
Частота : 44,1 КГц
Метод сжатия : С потерями
Размер потока : 3,04 Мбайт (3%)
Заголовок : (C) 2007 Google Inc. v08.13.2007.
Дата кодирования : UTC 2010-09-30 07:58:22
Дата пометки : UTC 2010-09-30 07:58:24
Общее
Полное имя : E:Music Video(Vocal Trance)(2008-2013)JES - It's Too Late (Music Video) (First State Remix).mp4
Формат : MPEG-4
Профиль формата : Base Media / Version 2
Идентификатор кодека : mp42
Размер файла : 73,5 Мбайт
Длительность : 3 м. 48 с.
Режим общего битрейта : Переменный
Общий поток : 2694 Кбит/сек
Дата кодирования : UTC 2012-03-06 12:34:47
Дата пометки : UTC 2012-03-06 12:34:47
gsst : 0
gstd : 228901
gssd : B2E3D9B87MH1358097149756195
gshh : r4---sn-gvnuxaxjvh-n8vs.c.youtube.com
Видео
Идентификатор : 1
Формат : AVC
Формат/Информация : Advanced Video Кодек
Профиль формата : High@L3.1
Параметр CABAC формата : Да
Параметр ReFrames формата : 1 кадр
Идентификатор кодека : avc1
Идентификатор кодека/Информация : Advanced Video Coding
Длительность : 3 м. 48 с.
Битрейт : 2540 Кбит/сек
Максимальный битрейт : 8010 Кбит/сек
Ширина : 1280 пикселей
Высота : 720 пикселей
Соотношение сторон : 16:9
Режим частоты кадров : Постоянный
Частота кадров : 23,976 кадра/сек
Цветовое пространство : YUV
Субдискретизация насыщенности : 4:2:0
Битовая глубина : 8 бит
Тип развёртки : Прогрессивная
Бит/(Пиксели*Кадры) : 0.115
Размер потока : 69,3 Мбайт (94%)
Дата пометки : UTC 2012-03-06 12:34:47
Аудио
Идентификатор : 2
Формат : AAC
Формат/Информация : Advanced Audio Кодек
Профиль формата : LC
Идентификатор кодека : 40
Длительность : 3 м. 48 с.
Вид битрейта : Переменный
Битрейт : 152 Кбит/сек
Максимальный битрейт : 246 Кбит/сек
Каналы : 2 канала
Расположение каналов : Front: L R
Частота : 44,1 КГц
Метод сжатия : С потерями
Размер потока : 4,15 Мбайт (6%)
Заголовок : IsoMedia File Produced by Google, 5-11-2011
Дата кодирования : UTC 2012-03-06 12:34:47
Дата пометки : UTC 2012-03-06 12:34:47
Общее
Полное имя : E:Music Video(Vocal Trance)(2008-2013)JES Chanson D'Amour Official Music Video.mp4
Формат : MPEG-4
Профиль формата : Base Media / Version 2
Идентификатор кодека : mp42
Размер файла : 56,0 Мбайт
Длительность : 3 м. 48 с.
Режим общего битрейта : Переменный
Общий поток : 2054 Кбит/сек
Дата кодирования : UTC 2010-01-28 13:48:02
Дата пометки : UTC 2010-01-28 13:48:02
gsst : 0
gstd : 229063
gssd : B4A7DD8E4MH1358087688696979
gshh : r4---sn-cg07luer.c.youtube.com
Видео
Идентификатор : 2
Формат : AVC
Формат/Информация : Advanced Video Кодек
Профиль формата : High@L3.1
Параметр CABAC формата : Да
Параметр ReFrames формата : 3 кадра
Идентификатор кодека : avc1
Идентификатор кодека/Информация : Advanced Video Coding
Длительность : 3 м. 48 с.
Битрейт : 1927 Кбит/сек
Максимальный битрейт : 3219 Кбит/сек
Ширина : 1280 пикселей
Высота : 720 пикселей
Соотношение сторон : 16:9
Режим частоты кадров : Постоянный
Частота кадров : 23,976 кадра/сек
Цветовое пространство : YUV
Субдискретизация насыщенности : 4:2:0
Битовая глубина : 8 бит
Тип развёртки : Прогрессивная
Бит/(Пиксели*Кадры) : 0.087
Размер потока : 52,5 Мбайт (94%)
Заголовок : (C) 2007 Google Inc. v08.13.2007.
Дата кодирования : UTC 2010-01-28 13:48:03
Дата пометки : UTC 2010-01-28 13:48:06
Аудио
Идентификатор : 1
Формат : AAC
Формат/Информация : Advanced Audio Кодек
Профиль формата : LC
Идентификатор кодека : 40
Длительность : 3 м. 48 с.
Вид битрейта : Переменный
Битрейт : 125 Кбит/сек
Максимальный битрейт : 156 Кбит/сек
Каналы : 2 канала
Расположение каналов : Front: L R
Частота : 44,1 КГц
Метод сжатия : С потерями
Размер потока : 3,42 Мбайт (6%)
Заголовок : (C) 2007 Google Inc. v08.13.2007.
Дата кодирования : UTC 2010-01-28 13:48:02
Дата пометки : UTC 2010-01-28 13:48:06
Общее
Полное имя : E:Music Video(Vocal Trance)(2008-2013)Julie Thompson - Shine.mp4
Формат : MPEG-4
Профиль формата : Base Media / Version 2
Идентификатор кодека : mp42
Размер файла : 59,2 Мбайт
Длительность : 3 м. 53 с.
Режим общего битрейта : Переменный
Общий поток : 2130 Кбит/сек
Дата кодирования : UTC 2010-08-24 12:15:10
Дата пометки : UTC 2010-08-24 12:15:10
gsst : 0
gstd : 233280
gssd : BADC23AA7HH1358087108736912
gshh : r7---sn-n8v7lnee.c.youtube.com
Видео
Идентификатор : 1
Формат : AVC
Формат/Информация : Advanced Video Кодек
Профиль формата : High@L3.1
Параметр CABAC формата : Да
Параметр ReFrames формата : 1 кадр
Идентификатор кодека : avc1
Идентификатор кодека/Информация : Advanced Video Coding
Длительность : 3 м. 53 с.
Битрейт : 1998 Кбит/сек
Максимальный битрейт : 3475 Кбит/сек
Ширина : 1280 пикселей
Высота : 720 пикселей
Соотношение сторон : 16:9
Режим частоты кадров : Постоянный
Частота кадров : 25,000 кадров/сек
Цветовое пространство : YUV
Субдискретизация насыщенности : 4:2:0
Битовая глубина : 8 бит
Тип развёртки : Прогрессивная
Бит/(Пиксели*Кадры) : 0.087
Размер потока : 55,6 Мбайт (94%)
Дата пометки : UTC 2010-08-24 12:15:16
Аудио
Идентификатор : 2
Формат : AAC
Формат/Информация : Advanced Audio Кодек
Профиль формата : LC
Идентификатор кодека : 40
Длительность : 3 м. 53 с.
Вид битрейта : Переменный
Битрейт : 128 Кбит/сек
Максимальный битрейт : 241 Кбит/сек
Каналы : 2 канала
Расположение каналов : Front: L R
Частота : 44,1 КГц
Метод сжатия : С потерями
Размер потока : 3,56 Мбайт (6%)
Заголовок : (C) 2007 Google Inc. v08.13.2007.
Дата кодирования : UTC 2010-08-24 12:15:13
Дата пометки : UTC 2010-08-24 12:15:16
Общее
Полное имя : E:Music Video(Vocal Trance)(2008-2013)Moonbeam feat Leusin - Daydream (Official Video).mp4
Формат : MPEG-4
Профиль формата : Base Media / Version 2
Идентификатор кодека : mp42
Размер файла : 29,9 Мбайт
Длительность : 3 м. 1 с.
Режим общего битрейта : Переменный
Общий поток : 1381 Кбит/сек
Дата кодирования : UTC 2012-01-09 15:39:33
Дата пометки : UTC 2012-01-09 15:39:33
gsst : 0
gstd : 181811
gssd : B2E3D9B04MH1358098502959456
gshh : r1---sn-gvnuxaxjvh-n8ve.c.youtube.com
Видео
Идентификатор : 1
Формат : AVC
Формат/Информация : Advanced Video Кодек
Профиль формата : High@L3.1
Параметр CABAC формата : Да
Параметр ReFrames формата : 1 кадр
Идентификатор кодека : avc1
Идентификатор кодека/Информация : Advanced Video Coding
Длительность : 3 м. 1 с.
Битрейт : 1228 Кбит/сек
Максимальный битрейт : 2857 Кбит/сек
Ширина : 1280 пикселей
Высота : 720 пикселей
Соотношение сторон : 16:9
Режим частоты кадров : Постоянный
Частота кадров : 23,976 кадра/сек
Цветовое пространство : YUV
Субдискретизация насыщенности : 4:2:0
Битовая глубина : 8 бит
Тип развёртки : Прогрессивная
Бит/(Пиксели*Кадры) : 0.056
Размер потока : 26,6 Мбайт (89%)
Дата пометки : UTC 2012-01-09 15:39:33
Аудио
Идентификатор : 2
Формат : AAC
Формат/Информация : Advanced Audio Кодек
Профиль формата : LC
Идентификатор кодека : 40
Длительность : 3 м. 1 с.
Вид битрейта : Переменный
Битрейт : 151 Кбит/сек
Максимальный битрейт : 175 Кбит/сек
Каналы : 2 канала
Расположение каналов : Front: L R
Частота : 44,1 КГц
Метод сжатия : С потерями
Размер потока : 3,26 Мбайт (11%)
Заголовок : IsoMedia File Produced by Google, 5-11-2011
Дата кодирования : UTC 2012-01-09 15:39:33
Дата пометки : UTC 2012-01-09 15:39:33
Общее
Полное имя : E:Music Video(Vocal Trance)(2008-2013)Moonbeam feat. Avis Vox - Star Way (Official Video) [Black Hole Recordings].mp4
Формат : MPEG-4
Профиль формата : Base Media / Version 2
Идентификатор кодека : mp42
Размер файла : 37,9 Мбайт
Длительность : 3 м. 34 с.
Режим общего битрейта : Переменный
Общий поток : 1482 Кбит/сек
Дата кодирования : UTC 2011-01-15 21:31:38
Дата пометки : UTC 2011-01-15 21:31:38
gsst : 0
gstd : 214701
gssd : BADC23A64MH1358098734254085
gshh : r4---sn-n8v7ln7y.c.youtube.com
Видео
Идентификатор : 1
Формат : AVC
Формат/Информация : Advanced Video Кодек
Профиль формата : High@L3.1
Параметр CABAC формата : Да
Параметр ReFrames формата : 1 кадр
Идентификатор кодека : avc1
Идентификатор кодека/Информация : Advanced Video Coding
Длительность : 3 м. 34 с.
Битрейт : 1348 Кбит/сек
Максимальный битрейт : 5665 Кбит/сек
Ширина : 1280 пикселей
Высота : 720 пикселей
Соотношение сторон : 16:9
Режим частоты кадров : Переменный
Частота кадров : 23,976 кадра/сек
Минимальная частота кадров : 17,241 кадров/сек
Максимальная частота кадров : 24,390 кадра/сек
Цветовое пространство : YUV
Субдискретизация насыщенности : 4:2:0
Битовая глубина : 8 бит
Тип развёртки : Прогрессивная
Бит/(Пиксели*Кадры) : 0.061
Размер потока : 34,5 Мбайт (91%)
Дата пометки : UTC 2011-01-15 21:31:41
Аудио
Идентификатор : 2
Формат : AAC
Формат/Информация : Advanced Audio Кодек
Профиль формата : LC
Идентификатор кодека : 40
Длительность : 3 м. 34 с.
Вид битрейта : Переменный
Битрейт : 128 Кбит/сек
Максимальный битрейт : 165 Кбит/сек
Каналы : 2 канала
Расположение каналов : Front: L R
Частота : 44,1 КГц
Метод сжатия : С потерями
Размер потока : 3,28 Мбайт (9%)
Заголовок : (C) 2007 Google Inc. v08.13.2007.
Дата кодирования : UTC 2011-01-15 21:31:39
Дата пометки : UTC 2011-01-15 21:31:41
Общее
Полное имя : E:Music Video(Vocal Trance)(2008-2013)Moonbeam ft Avis Vox - We Are In Words (Official Video).mp4
Формат : MPEG-4
Профиль формата : Base Media / Version 2
Идентификатор кодека : mp42
Размер файла : 52,2 Мбайт
Длительность : 3 м. 24 с.
Режим общего битрейта : Переменный
Общий поток : 2137 Кбит/сек
Дата кодирования : UTC 2009-11-30 17:32:13
Дата пометки : UTC 2009-11-30 17:32:13
gsst : 0
gstd : 205356
gssd : BADC23A61MH1358098889523813
gshh : r1---sn-n8v7ln7y.c.youtube.com
Видео
Идентификатор : 2
Формат : AVC
Формат/Информация : Advanced Video Кодек
Профиль формата : High@L3.1
Параметр CABAC формата : Да
Параметр ReFrames формата : 3 кадра
Идентификатор кодека : avc1
Идентификатор кодека/Информация : Advanced Video Coding
Длительность : 3 м. 24 с.
Битрейт : 2008 Кбит/сек
Максимальный битрейт : 3235 Кбит/сек
Ширина : 1280 пикселей
Высота : 720 пикселей
Соотношение сторон : 16:9
Режим частоты кадров : Постоянный
Частота кадров : 25,000 кадров/сек
Цветовое пространство : YUV
Субдискретизация насыщенности : 4:2:0
Битовая глубина : 8 бит
Тип развёртки : Прогрессивная
Бит/(Пиксели*Кадры) : 0.087
Размер потока : 49,0 Мбайт (94%)
Заголовок : (C) 2007 Google Inc. v08.13.2007.
Дата кодирования : UTC 2009-11-30 17:32:13
Дата пометки : UTC 2009-11-30 17:32:18
Аудио
Идентификатор : 1
Формат : AAC
Формат/Информация : Advanced Audio Кодек
Профиль формата : LC
Идентификатор кодека : 40
Длительность : 3 м. 24 с.
Вид битрейта : Переменный
Битрейт : 126 Кбит/сек
Максимальный битрейт : 159 Кбит/сек
Каналы : 2 канала
Расположение каналов : Front: L R
Частота : 44,1 КГц
Метод сжатия : С потерями
Размер потока : 3,08 Мбайт (6%)
Заголовок : (C) 2007 Google Inc. v08.13.2007.
Дата кодирования : UTC 2009-11-30 17:32:13
Дата пометки : UTC 2009-11-30 17:32:18
Общее
Полное имя : E:Music Video(Vocal Trance)(2008-2013)Pulser featuring Molly Bancroft - In Deep.mp4
Формат : MPEG-4
Профиль формата : Base Media / Version 2
Идентификатор кодека : mp42
Размер файла : 87,5 Мбайт
Длительность : 4 м. 3 с.
Режим общего битрейта : Переменный
Общий поток : 3009 Кбит/сек
Дата кодирования : UTC 2012-04-09 12:08:12
Дата пометки : UTC 2012-04-09 12:08:12
gsst : 0
gstd : 244041
gssd : B2E3D9BC5MH1358097052291434
gshh : r2---sn-gvnuxaxjvh-n8vz.c.youtube.com
Видео
Идентификатор : 1
Формат : AVC
Формат/Информация : Advanced Video Кодек
Профиль формата : High@L4.0
Параметр CABAC формата : Да
Параметр ReFrames формата : 1 кадр
Идентификатор кодека : avc1
Идентификатор кодека/Информация : Advanced Video Coding
Длительность : 4 м. 3 с.
Битрейт : 2854 Кбит/сек
Максимальный битрейт : 5821 Кбит/сек
Ширина : 1920 пикселей
Высота : 1080 пикселей
Соотношение сторон : 16:9
Режим частоты кадров : Постоянный
Частота кадров : 25,000 кадров/сек
Цветовое пространство : YUV
Субдискретизация насыщенности : 4:2:0
Битовая глубина : 8 бит
Тип развёртки : Прогрессивная
Бит/(Пиксели*Кадры) : 0.055
Размер потока : 83,0 Мбайт (95%)
Дата пометки : UTC 2012-04-09 12:08:13
Аудио
Идентификатор : 2
Формат : AAC
Формат/Информация : Advanced Audio Кодек
Профиль формата : LC
Идентификатор кодека : 40
Длительность : 4 м. 3 с.
Вид битрейта : Переменный
Битрейт : 152 Кбит/сек
Максимальный битрейт : 179 Кбит/сек
Каналы : 2 канала
Расположение каналов : Front: L R
Частота : 44,1 КГц
Метод сжатия : С потерями
Размер потока : 4,42 Мбайт (5%)
Заголовок : IsoMedia File Produced by Google, 5-11-2011
Дата кодирования : UTC 2012-04-09 12:08:13
Дата пометки : UTC 2012-04-09 12:08:13
Общее
Полное имя : E:Music Video(Vocal Trance)(2008-2013)Richard Durand & Pedro Del Mar feat. Roberta Harrison - Paint the Sky (Official Music Video).mp4
Формат : MPEG-4
Профиль формата : Base Media / Version 2
Идентификатор кодека : mp42
Размер файла : 65,3 Мбайт
Длительность : 3 м. 19 с.
Режим общего битрейта : Переменный
Общий поток : 2752 Кбит/сек
Дата кодирования : UTC 2012-12-20 15:08:28
Дата пометки : UTC 2012-12-20 15:08:28
gsst : 0
gstd : 199341
gssd : BD075E00AHH1358088362407627
gshh : r7---sn-2apm-f5fs.c.youtube.com
Видео
Идентификатор : 1
Формат : AVC
Формат/Информация : Advanced Video Кодек
Профиль формата : High@L3.1
Параметр CABAC формата : Да
Параметр ReFrames формата : 1 кадр
Идентификатор кодека : avc1
Идентификатор кодека/Информация : Advanced Video Coding
Длительность : 3 м. 19 с.
Битрейт : 2557 Кбит/сек
Максимальный битрейт : 9055 Кбит/сек
Ширина : 1280 пикселей
Высота : 720 пикселей
Соотношение сторон : 16:9
Режим частоты кадров : Постоянный
Частота кадров : 29,970 кадров/сек
Цветовое пространство : YUV
Субдискретизация насыщенности : 4:2:0
Битовая глубина : 8 бит
Тип развёртки : Прогрессивная
Бит/(Пиксели*Кадры) : 0.093
Размер потока : 60,7 Мбайт (93%)
Дата пометки : UTC 2012-12-20 15:08:28
Аудио
Идентификатор : 2
Формат : AAC
Формат/Информация : Advanced Audio Кодек
Профиль формата : LC
Идентификатор кодека : 40
Длительность : 3 м. 19 с.
Вид битрейта : Переменный
Битрейт : 192 Кбит/сек
Максимальный битрейт : 204 Кбит/сек
Каналы : 2 канала
Расположение каналов : Front: L R
Частота : 44,1 КГц
Метод сжатия : С потерями
Размер потока : 4,56 Мбайт (7%)
Заголовок : IsoMedia File Produced by Google, 5-11-2011
Дата кодирования : UTC 2012-12-20 15:08:28
Дата пометки : UTC 2012-12-20 15:08:28
Общее
Полное имя : E:Music Video(Vocal Trance)(2008-2013)Richard Durand feat. Hadley - Run To You (Godskitchen Fusion Edit).mp4
Формат : MPEG-4
Профиль формата : Base Media / Version 2
Идентификатор кодека : mp42
Размер файла : 137 Мбайт
Длительность : 3 м. 7 с.
Режим общего битрейта : Переменный
Общий поток : 6135 Кбит/сек
Дата кодирования : UTC 2011-12-15 11:10:44
Дата пометки : UTC 2011-12-15 11:10:44
gsst : 0
gstd : 187965
gssd : B2E3D9BCBMH1358097292110470
gshh : r8---sn-gvnuxaxjvh-n8vz.c.youtube.com
Видео
Идентификатор : 1
Формат : AVC
Формат/Информация : Advanced Video Кодек
Профиль формата : High@L4.0
Параметр CABAC формата : Да
Параметр ReFrames формата : 1 кадр
Идентификатор кодека : avc1
Идентификатор кодека/Информация : Advanced Video Coding
Длительность : 3 м. 7 с.
Битрейт : 5981 Кбит/сек
Максимальный битрейт : 17,4 Мбит/сек
Ширина : 1920 пикселей
Высота : 1080 пикселей
Соотношение сторон : 16:9
Режим частоты кадров : Постоянный
Частота кадров : 25,000 кадров/сек
Цветовое пространство : YUV
Субдискретизация насыщенности : 4:2:0
Битовая глубина : 8 бит
Тип развёртки : Прогрессивная
Бит/(Пиксели*Кадры) : 0.115
Размер потока : 134 Мбайт (97%)
Дата пометки : UTC 2011-12-15 11:10:45
Аудио
Идентификатор : 2
Формат : AAC
Формат/Информация : Advanced Audio Кодек
Профиль формата : LC
Идентификатор кодека : 40
Длительность : 3 м. 7 с.
Вид битрейта : Переменный
Битрейт : 152 Кбит/сек
Максимальный битрейт : 170 Кбит/сек
Каналы : 2 канала
Расположение каналов : Front: L R
Частота : 44,1 КГц
Метод сжатия : С потерями
Размер потока : 3,41 Мбайт (2%)
Заголовок : IsoMedia File Produced by Google, 5-11-2011
Дата кодирования : UTC 2011-12-15 11:10:45
Дата пометки : UTC 2011-12-15 11:10:45
Общее
Полное имя : E:Music Video(Vocal Trance)(2008-2013)Richard Durand feat. Hadley - Run To You (Official Music Video).mp4
Формат : MPEG-4
Профиль формата : Base Media / Version 2
Идентификатор кодека : mp42
Размер файла : 92,4 Мбайт
Длительность : 2 м. 59 с.
Режим общего битрейта : Переменный
Общий поток : 4329 Кбит/сек
Дата кодирования : UTC 2011-11-21 08:37:01
Дата пометки : UTC 2011-11-21 08:37:01
gsst : 0
gstd : 179188
gssd : BADC23A46HH1358097406240718
gshh : r6---sn-n8v7ln7r.c.youtube.com
Видео
Идентификатор : 1
Формат : AVC
Формат/Информация : Advanced Video Кодек
Профиль формата : High@L4.0
Параметр CABAC формата : Да
Параметр ReFrames формата : 1 кадр
Идентификатор кодека : avc1
Идентификатор кодека/Информация : Advanced Video Coding
Длительность : 2 м. 59 с.
Битрейт : 4175 Кбит/сек
Максимальный битрейт : 7083 Кбит/сек
Ширина : 1920 пикселей
Высота : 1080 пикселей
Соотношение сторон : 16:9
Режим частоты кадров : Постоянный
Частота кадров : 24,000 кадра/сек
Цветовое пространство : YUV
Субдискретизация насыщенности : 4:2:0
Битовая глубина : 8 бит
Тип развёртки : Прогрессивная
Бит/(Пиксели*Кадры) : 0.084
Размер потока : 89,1 Мбайт (96%)
Дата пометки : UTC 2011-11-21 08:37:01
Аудио
Идентификатор : 2
Формат : AAC
Формат/Информация : Advanced Audio Кодек
Профиль формата : LC
Идентификатор кодека : 40
Длительность : 2 м. 59 с.
Вид битрейта : Переменный
Битрейт : 152 Кбит/сек
Максимальный битрейт : 167 Кбит/сек
Каналы : 2 канала
Расположение каналов : Front: L R
Частота : 44,1 КГц
Метод сжатия : С потерями
Размер потока : 3,24 Мбайт (4%)
Заголовок : IsoMedia File Produced by Google, 5-11-2011
Дата кодирования : UTC 2011-11-21 08:37:01
Дата пометки : UTC 2011-11-21 08:37:01
Общее
Полное имя : E:Music Video(Vocal Trance)(2008-2013)XB & Linnea Schossow - Be My All (Official Music Video).mp4
Формат : MPEG-4
Профиль формата : Base Media / Version 2
Идентификатор кодека : mp42
Размер файла : 57,5 Мбайт
Длительность : 3 м. 58 с.
Режим общего битрейта : Переменный
Общий поток : 2022 Кбит/сек
Дата кодирования : UTC 2012-08-26 10:38:29
Дата пометки : UTC 2012-08-26 10:38:29
gsst : 0
gstd : 238770
gssd : B2E1CF607HH1358083409884232
gshh : r4---sn-2apm-f5f6.c.youtube.com
Видео
Идентификатор : 1
Формат : AVC
Формат/Информация : Advanced Video Кодек
Профиль формата : High@L4.0
Параметр CABAC формата : Да
Параметр ReFrames формата : 1 кадр
Параметр GOP формата : M=1, N=48
Идентификатор кодека : avc1
Идентификатор кодека/Информация : Advanced Video Coding
Длительность : 3 м. 58 с.
Битрейт : 1828 Кбит/сек
Максимальный битрейт : 3883 Кбит/сек
Ширина : 1920 пикселей
Высота : 1080 пикселей
Соотношение сторон : 16:9
Режим частоты кадров : Постоянный
Частота кадров : 23,976 кадра/сек
Цветовое пространство : YUV
Субдискретизация насыщенности : 4:2:0
Битовая глубина : 8 бит
Тип развёртки : Прогрессивная
Бит/(Пиксели*Кадры) : 0.037
Размер потока : 52,0 Мбайт (90%)
Дата пометки : UTC 2012-08-26 10:38:29
Аудио
Идентификатор : 2
Формат : AAC
Формат/Информация : Advanced Audio Кодек
Профиль формата : LC
Идентификатор кодека : 40
Длительность : 3 м. 58 с.
Вид битрейта : Переменный
Битрейт : 192 Кбит/сек
Максимальный битрейт : 201 Кбит/сек
Каналы : 2 канала
Расположение каналов : Front: L R
Частота : 44,1 КГц
Метод сжатия : С потерями
Размер потока : 5,46 Мбайт (9%)
Заголовок : IsoMedia File Produced by Google, 5-11-2011
Дата кодирования : UTC 2012-08-26 10:38:29
Дата пометки : UTC 2012-08-26 10:38:29



Просьба «поделиться» в соцсетях

ЗОЛОТАЯ РАЗДАЧА! СКАЧАННОЕ НЕ ЗАСЧИТЫВАЕТСЯ!
Торрент: [добавлен 2013-03-14 16:19 ] Зарегистрирован

Статус: √ проверено
Торрент скачан: 288 раз
Размер: 3.03 GB
Оценка: 9.9 из 10 (Голосов: 10)



Последний раз редактировалось: kocmoc2012 (2013-03-14 16:37), всего редактировалось 11 раз(а)

Зайчина

Сборник видеоклипов , Скачать торрент 

Спосибо!!!Я очень люблю транс!!!Но скачаю позже делаю раздачу на 53гига трилогию!!!

Jeck2000

Сборник видеоклипов , Скачать торрент 

Зайчина писал(а):

Спосибо!!!Я очень люблю транс!!!Но скачаю позже делаю раздачу на 53гига трилогию!!!

Вот это крутняк, с нетерпение жду !

Автор темы

kocmoc2012

Сборник видеоклипов , Скачать торрент 

Jeck2000 писал(а):

Зайчина писал(а):

Спосибо!!!Я очень люблю транс!!!Но скачаю позже делаю раздачу на 53гига трилогию!!!

Вот это крутняк, с нетерпение жду !

Я так думаю он имел про какой то фильм, а не про клипы)

Semenich

Сборник видеоклипов , Скачать торрент 

Если нравится транс музыка, то, по-моему мнению, лучше слушать до 2000 года, после пошла коммерция, а когда деньги влезают в искусство - это уже не искусство.

Автор темы

kocmoc2012

Сборник видеоклипов , Скачать торрент 

Semenich писал(а):

Если нравится транс музыка, то, по-моему мнению, лучше слушать до 2000 года, после пошла коммерция, а когда деньги влезают в искусство - это уже не искусство.

Ну тут вы не правы. Сейчас Самое то идёт!

Новые торренты

23-07
23-07
23-07
23-07
23-07
23-07
23-07
23-07
23-07
23-07
23-07
23-07
23-07
23-07
23-07

Игры горячие новинки

20-07
15-07
13-07
12-07
12-07
12-07
07-07
07-07
07-07
04-07
03-07
02-07
02-07
30-06
29-06
Показать сообщения:    


Вы не можете начинать темы
Вы не можете отвечать на сообщения
Вы не можете редактировать свои сообщения
Вы не можете удалять свои сообщения
Вы не можете голосовать в опросах
Вы не можете прикреплять файлы к сообщениям
Вы можете скачивать файлы